<?xml version="1.0" standalone="no"?>
<!DOCTYPE svg PUBLIC "-//W3C//DTD SVG 1.1//EN" "http://www.w3.org/Graphics/SVG/1.1/DTD/svg11.dtd" >
<svg xmlns="http://www.w3.org/2000/svg" xmlns:xlink="http://www.w3.org/1999/xlink" version="1.1">
<metadata>
Created by FontForge 20170731 at Sun Sep  3 08:20:10 2017
 By Aleksey,,,
Copyright (c) 2017 by www.fontiran.com (Moslem Ebrahimi). All rights reserved.
</metadata>
<defs>
<font id="IRANSansWebFaNum-Bold" horiz-adv-x="0" >
  <font-face 
    font-family="IRANSansWeb(FaNum)"
    font-weight="700"
    font-stretch="normal"
    units-per-em="2300"
    panose-1="2 11 5 6 3 8 4 2 2 4"
    ascent="1840"
    descent="-460"
    x-height="1215"
    cap-height="1635"
    bbox="-1168 -1311 3339 2817.43"
    underline-thickness="100"
    underline-position="-950"
    unicode-range="U+001D-FEFF"
  />
<missing-glyph horiz-adv-x="1229" 
d="M102 -362v1806h1024v-1806h-1024zM217 -248h795v1577h-795v-1577z" />
    <glyph glyph-name="allah" unicode="&#xfedf;&#xfee0;&#x651;&#x64e;&#xfeea;" horiz-adv-x="2052" arabic-form="isolated" 
d="M1064 -68q-22 0 -63 3.5t-89 19.5t-97.5 48.5t-87.5 90.5q-35 -3 -70 -4.5t-66 -1.5h-29q-15 0 -29 1q-95 4 -180 27t-148.5 66.5t-99.5 109t-31 154.5q4 69 32.5 129t72 110.5t97 92.5t108.5 75t106 57.5t90 40.5q-5 70 -6 101t-1 39l313 48l72 -802q3 -35 24 -53.5
t46 -26.5t46 -9t26 -1q12 0 26.5 4.5t29 15t26 27.5t17.5 41q0 43 -3.5 124t-9.5 194t-14.5 255t-18.5 307l318 33l40 -555q6 -82 11 -150t8 -116.5t5 -76t2 -28.5q2 -15 6.5 -29.5t15.5 -25t29.5 -17t48.5 -6.5q15 0 29 3t25.5 13.5t18.5 29t7 50.5q0 3 -36 429l-43 511
l312 71q38 -504 57 -771.5t18 -306.5q-1 -77 -28.5 -138t-77.5 -104t-120 -66t-157 -24q-41 0 -74 4.5t-63 13.5t-59 21.5t-62 27.5q-72 -46 -152 -61t-168 -15zM1213 1368q-43 0 -72 17t-47 45t-25.5 64t-7.5 74.5t7.5 75.5t19.5 68l116 -27q-11 -45 -15 -67t-5 -35
q-2 -30 4 -51t25 -22q23 -1 38 22.5t23 56t10 65.5t1 51l118 -2q5 -28 9 -48t7 -34.5t5.5 -25t5.5 -19.5q3 -10 8 -21t12 -20.5t14.5 -15.5t16.5 -6q19 0 27 13.5t7.5 35.5t-7.5 49t-17.5 54t-22.5 50.5t-23 39.5l101 66q31 -42 52.5 -98.5t28.5 -114.5t-3.5 -110.5
t-44.5 -86.5q-22 -22 -55 -31.5t-67 -6.5t-64 19t-46 46q-32 -42 -67.5 -56t-66.5 -14zM1262 1819q25 90 25 163q0 63 -26 164l127 40q11 -45 18.5 -93.5t7.5 -96.5q0 -45 -5.5 -98t-19.5 -119zM624 407q-6 42 -11.5 93.5t-10.5 117.5q-1 -1 -2 -1q-37 -15 -82.5 -36.5
t-84.5 -45.5t-63 -48t-18 -43q4 -15 34.5 -23t72 -11t86.5 -3h79z" />
    <glyph glyph-name="riyal" unicode="&#x631;&#xfef3;&#xfe8e;&#x644;" horiz-adv-x="3340" arabic-form="isolated" 
d="M394 294q-14 -26 -26 -54t-23 -57q-18 -51 -32.5 -114t-10.5 -129q3 -57 23 -104t51.5 -85t71 -66t81 -47t82.5 -28.5t75 -9.5q43 0 92 9.5t98 29.5t94 50.5t80 74t55.5 99.5t20.5 126q0 79 -4.5 186.5t-11 229t-15.5 250.5t-18 252q-11 148 -22.5 294.5t-25.5 307.5
l319 74q7 -172 13.5 -328t11.5 -312q5 -130 9.5 -266t8.5 -263.5t6 -238t2 -189.5q0 -132 -32 -235.5t-86 -181.5t-125.5 -132t-150 -88t-159.5 -49.5t-154 -15.5t-151 16.5t-152 50.5t-140 86t-115 122.5t-77 160t-26 198.5q2 121 19.5 212.5t38.5 154.5q13 38 27 70.5
t28 58.5l250 -120v0zM1996 256h135q42 0 92.5 7t94 22.5t73 42t29.5 65.5q0 24 -14 71.5t-37 106t-52 122.5t-58 122l286 142q28 -63 55.5 -134t49.5 -144t35.5 -145.5t13.5 -138.5q0 -120 -40 -206t-112 -141.5t-172 -81.5t-220 -26h-159v316zM3206 673q21 -62 44.5 -135.5
t43 -150.5t32.5 -153.5t13 -143.5q0 -94 -25.5 -183.5t-72 -173.5t-110.5 -161t-142 -145.5t-167 -127t-184 -105.5l-182 253q72 36 145.5 81.5t141 97.5t126 109t102 116t68.5 119.5t25 118.5q0 42 -11.5 91t-31.5 105.5t-46.5 120t-57.5 135.5l289 132v0zM1987 -60
q-125 0 -212 33.5t-142 92.5t-79.5 139.5t-24.5 174.5q0 48 2 119.5t2 165.5t-1 206.5t-5.5 225.5t-13 217t-23.5 181l299 91q13 -66 21.5 -155.5t13.5 -187.5t7.5 -197t3.5 -184q1 -75 -2.5 -157.5t-5.5 -158t1.5 -136.5t18.5 -93q9 -23 22.5 -35t31.5 -18t39.5 -7t47.5 -1
h27v-316h-28zM2083 -353l-188 -188l-194 193l192 193l190 -190l188 188l194 -193l-192 -193z" />
    <glyph glyph-name="uni06440622.isol" unicode="&#xfedf;&#xfe82;" horiz-adv-x="1270" arabic-form="isolated" 
d="M1222 599q1 -12 1.5 -25.5t0.5 -25.5q0 -69 -15.5 -137.5t-42 -130.5t-62 -115.5t-75.5 -93.5q-58 -53 -129 -91.5t-150 -64.5t-162.5 -38.5t-165.5 -12.5q-48 0 -104 5t-120 14l54 314q78 -10 129.5 -15t86.5 -5q18 0 47.5 2.5t50.5 4.5q-10 83 -38.5 170t-68 173
t-87 168t-95.5 155t-93.5 134.5t-81 106t-57.5 70.5t-23 27l231 237q84 -109 154.5 -219.5t128.5 -217t104 -206.5t81 -188t59.5 -162t39.5 -128q26 16 50.5 41.5t43.5 59t30.5 74t11.5 85.5q0 3 -0.5 8t-2.5 18.5t-6 40t-12 72t-19.5 113.5t-29 166.5t-40.5 230t-53 303.5
l302 73q0 -2 7 -45.5t18 -117t25 -170.5t28 -206.5t27 -225t22 -225.5zM-156 1462q9 50 35 96t62 81t79.5 55.5t89.5 20.5q47 0 83.5 -11t68.5 -25q43 -18 75.5 -23.5t60 3.5t53 32t54.5 61l137 -88q-1 -3 -11 -17t-27.5 -34t-42.5 -42.5t-56 -42t-67 -32.5t-76 -14t-73 9
t-64 22t-63.5 21.5t-70.5 8.5q-26 -1 -42 -16.5t-25 -36.5t-13.5 -43t-8.5 -34z" />
    <glyph glyph-name="uni06440622.fina" unicode="&#xfee0;&#xfe82;" horiz-adv-x="1399" arabic-form="final" 
d="M1419 256v-316h-60q-108 0 -182.5 40t-121.5 119q-6 -8 -13 -15l-13 -13q-58 -53 -129 -91.5t-150 -64.5t-162.5 -38.5t-165.5 -12.5q-48 0 -104 5t-120 14l54 314q78 -10 129.5 -15t86.5 -5q18 0 47.5 2.5t50.5 4.5q-10 83 -38.5 170t-68 173t-87 168t-95.5 155
t-93.5 134.5t-81 106t-57.5 70.5t-23 27l231 237q84 -109 154.5 -219.5t128.5 -217t104 -206.5t81 -188t59.5 -162t39.5 -128q26 16 50.5 41.5t43.5 59t30.5 74t11.5 85.5q0 3 -0.5 8t-2.5 18.5t-6 40t-12 72t-19.5 113.5t-29 166.5t-40.5 230t-53 303.5l302 73
q0 -2 6.5 -41.5t16.5 -106.5t23 -156t26.5 -191t26 -211t22.5 -215q12 -87 24.5 -162.5t32 -131t49.5 -87t77 -31.5h20zM-156 1466q9 50 35 96t62 81t79.5 55.5t89.5 20.5q47 0 83.5 -11t68.5 -25q43 -18 75.5 -23.5t60 3.5t53 32t54.5 61l137 -88q-1 -3 -11 -17t-27.5 -34
t-42.5 -42.5t-56 -42t-67 -32.5t-76 -14t-73 9t-64 22t-63.5 21.5t-70.5 8.5q-26 -1 -42 -16.5t-25 -36.5t-13.5 -43t-8.5 -34z" />
    <glyph glyph-name="uni06440623.isol" unicode="&#xfedf;&#xfe84;" horiz-adv-x="1270" arabic-form="isolated" 
d="M1222 599q1 -12 1.5 -25.5t0.5 -25.5q0 -69 -15.5 -137.5t-42 -130.5t-62 -115.5t-75.5 -93.5q-58 -53 -129 -91.5t-150 -64.5t-162.5 -38.5t-165.5 -12.5q-48 0 -104 5t-120 14l54 314q78 -10 129.5 -15t86.5 -5q18 0 47.5 2.5t50.5 4.5q-10 83 -38.5 170t-68 173
t-87 168t-95.5 155t-93.5 134.5t-81 106t-57.5 70.5t-23 27l231 237q84 -109 154.5 -219.5t128.5 -217t104 -206.5t81 -188t59.5 -162t39.5 -128q26 16 50.5 41.5t43.5 59t30.5 74t11.5 85.5q0 3 -0.5 8t-2.5 18.5t-6 40t-12 72t-19.5 113.5t-29 166.5t-40.5 230t-53 303.5
l302 73q0 -2 7 -45.5t18 -117t25 -170.5t28 -206.5t27 -225t22 -225.5zM329 1873q-26 4 -46.5 8t-39 6.5t-36 1t-36.5 -8.5q-20 -8 -36 -21t-26.5 -31t-12.5 -39.5t7 -46.5q6 -18 21.5 -29.5t33.5 -18.5t37 -8t33 2t23.5 6t26.5 10.5t48 23.5t89 46l76 -102l-257 -150
l-240 -133l-62 113l166 93q-34 20 -60.5 50t-41.5 65q-17 42 -14.5 85t20.5 82t49 70.5t72 49.5q25 11 51 15.5t53 4.5q13 0 25.5 -1t28 -3.5t36 -7t49.5 -11.5z" />
    <glyph glyph-name="uni06440623.fina" unicode="&#xfee0;&#xfe84;" horiz-adv-x="1399" arabic-form="final" 
d="M1419 256v-316h-60q-108 0 -182.5 40t-121.5 119q-6 -8 -13 -15l-13 -13q-58 -53 -129 -91.5t-150 -64.5t-162.5 -38.5t-165.5 -12.5q-48 0 -104 5t-120 14l54 314q78 -10 129.5 -15t86.5 -5q18 0 47.5 2.5t50.5 4.5q-10 83 -38.5 170t-68 173t-87 168t-95.5 155
t-93.5 134.5t-81 106t-57.5 70.5t-23 27l231 237q84 -109 154.5 -219.5t128.5 -217t104 -206.5t81 -188t59.5 -162t39.5 -128q26 16 50.5 41.5t43.5 59t30.5 74t11.5 85.5q0 3 -0.5 8t-2.5 18.5t-6 40t-12 72t-19.5 113.5t-29 166.5t-40.5 230t-53 303.5l302 73
q0 -2 6.5 -41.5t16.5 -106.5t23 -156t26.5 -191t26 -211t22.5 -215q12 -87 24.5 -162.5t32 -131t49.5 -87t77 -31.5h20zM329 1873q-26 4 -46.5 8t-39 6.5t-36 1t-36.5 -8.5q-20 -8 -36 -21t-26.5 -31t-12.5 -39.5t7 -46.5q6 -18 21.5 -29.5t33.5 -18.5t37 -8t33 2t23.5 6
t26.5 10.5t48 23.5t89 46l76 -102l-257 -150l-240 -133l-62 113l166 93q-34 20 -60.5 50t-41.5 65q-17 42 -14.5 85t20.5 82t49 70.5t72 49.5q25 11 51 15.5t53 4.5q13 0 25.5 -1t28 -3.5t36 -7t49.5 -11.5z" />
    <glyph glyph-name="uni06440625.isol" unicode="&#xfedf;&#xfe88;" horiz-adv-x="1270" arabic-form="isolated" 
d="M1222 599q1 -12 1.5 -25.5t0.5 -25.5q0 -69 -15.5 -137.5t-42 -130.5t-62 -115.5t-75.5 -93.5q-58 -53 -129 -91.5t-150 -64.5t-162.5 -38.5t-165.5 -12.5q-48 0 -104 5t-120 14l54 314q78 -10 129.5 -15t86.5 -5q18 0 47.5 2.5t50.5 4.5q-10 83 -38.5 170t-68 173
t-87 168t-95.5 155t-93.5 134.5t-81 106t-57.5 70.5t-23 27l231 237q84 -109 154.5 -219.5t128.5 -217t104 -206.5t81 -188t59.5 -162t39.5 -128q26 16 50.5 41.5t43.5 59t30.5 74t11.5 85.5q0 3 -0.5 8t-2.5 18.5t-6 40t-12 72t-19.5 113.5t-29 166.5t-40.5 230t-53 303.5
l302 73q0 -2 7 -45.5t18 -117t25 -170.5t28 -206.5t27 -225t22 -225.5zM510 -371q-26 4 -46.5 8t-39 6.5t-36 1t-36.5 -8.5q-20 -8 -36 -21t-26.5 -31t-12.5 -39.5t7 -46.5q6 -18 21.5 -29.5t33.5 -18.5t37 -8t33 2t23.5 6t26.5 10.5t48 23.5t89 46l76 -102l-257 -150
l-240 -133l-62 113l166 93q-34 20 -60.5 50t-41.5 65q-17 42 -14.5 85t20.5 82t49 70.5t72 49.5q25 11 51 15.5t53 4.5q13 0 25.5 -1t28 -3.5t36 -7t49.5 -11.5z" />
    <glyph glyph-name="uni06440625.fina" unicode="&#xfee0;&#xfe88;" horiz-adv-x="1399" arabic-form="final" 
d="M1419 256v-316h-60q-108 0 -182.5 40t-121.5 119q-6 -8 -13 -15l-13 -13q-58 -53 -129 -91.5t-150 -64.5t-162.5 -38.5t-165.5 -12.5q-48 0 -104 5t-120 14l54 314q78 -10 129.5 -15t86.5 -5q18 0 47.5 2.5t50.5 4.5q-10 83 -38.5 170t-68 173t-87 168t-95.5 155
t-93.5 134.5t-81 106t-57.5 70.5t-23 27l231 237q84 -109 154.5 -219.5t128.5 -217t104 -206.5t81 -188t59.5 -162t39.5 -128q26 16 50.5 41.5t43.5 59t30.5 74t11.5 85.5q0 3 -0.5 8t-2.5 18.5t-6 40t-12 72t-19.5 113.5t-29 166.5t-40.5 230t-53 303.5l302 73
q0 -2 6.5 -41.5t16.5 -106.5t23 -156t26.5 -191t26 -211t22.5 -215q12 -87 24.5 -162.5t32 -131t49.5 -87t77 -31.5h20zM525 -381q-26 4 -46.5 8t-39 6.5t-36 1t-36.5 -8.5q-20 -8 -36 -21t-26.5 -31t-12.5 -39.5t7 -46.5q6 -18 21.5 -29.5t33.5 -18.5t37 -8t33 2t23.5 6
t26.5 10.5t48 23.5t89 46l76 -102l-257 -150l-240 -133l-62 113l166 93q-34 20 -60.5 50t-41.5 65q-17 42 -14.5 85t20.5 82t49 70.5t72 49.5q25 11 51 15.5t53 4.5q13 0 25.5 -1t28 -3.5t36 -7t49.5 -11.5z" />
    <glyph glyph-name="uni06440627.isol" unicode="&#xfedf;&#xfe8e;" horiz-adv-x="1264" arabic-form="isolated" 
d="M1222 599q1 -12 1.5 -25.5t0.5 -25.5q0 -69 -15.5 -137.5t-42 -130.5t-62 -115.5t-75.5 -93.5q-58 -53 -129 -91.5t-150 -64.5t-162.5 -38.5t-165.5 -12.5q-48 0 -104 5t-120 14l54 314q78 -10 129.5 -15t86.5 -5q18 0 47.5 2.5t50.5 4.5q-10 83 -38.5 170t-68 173
t-87 168t-95.5 155t-93.5 134.5t-81 106t-57.5 70.5t-23 27l231 237q84 -109 154.5 -219.5t128.5 -217t104 -206.5t81 -188t59.5 -162t39.5 -128q26 16 50.5 41.5t43.5 59t30.5 74t11.5 85.5q0 3 -0.5 8t-2.5 18.5t-6 40t-12 72t-19.5 113.5t-29 166.5t-40.5 230t-53 303.5
l302 73q0 -2 7 -45.5t18 -117t25 -170.5t28 -206.5t27 -225t22 -225.5z" />
    <glyph glyph-name="uni06440627.fina" unicode="&#xfee0;&#xfe8e;" horiz-adv-x="1399" arabic-form="final" 
d="M1419 256v-316h-60q-108 0 -182.5 40t-121.5 119q-6 -8 -13 -15l-13 -13q-58 -53 -129 -91.5t-150 -64.5t-162.5 -38.5t-165.5 -12.5q-48 0 -104 5t-120 14l54 314q78 -10 129.5 -15t86.5 -5q18 0 47.5 2.5t50.5 4.5q-10 83 -38.5 170t-68 173t-87 168t-95.5 155
t-93.5 134.5t-81 106t-57.5 70.5t-23 27l231 237q84 -109 154.5 -219.5t128.5 -217t104 -206.5t81 -188t59.5 -162t39.5 -128q26 16 50.5 41.5t43.5 59t30.5 74t11.5 85.5q0 3 -0.5 8t-2.5 18.5t-6 40t-12 72t-19.5 113.5t-29 166.5t-40.5 230t-53 303.5l302 73
q0 -2 6.5 -41.5t16.5 -106.5t23 -156t26.5 -191t26 -211t22.5 -215q12 -87 24.5 -162.5t32 -131t49.5 -87t77 -31.5h20z" />
    <glyph glyph-name="uni06440671.isol" unicode="&#xfedf;&#xfb51;" horiz-adv-x="1270" 
d="M1222 599q1 -12 1.5 -25.5t0.5 -25.5q0 -69 -15.5 -137.5t-42 -130.5t-62 -115.5t-75.5 -93.5q-58 -53 -129 -91.5t-150 -64.5t-162.5 -38.5t-165.5 -12.5q-48 0 -104 5t-120 14l54 314q78 -10 129.5 -15t86.5 -5q18 0 47.5 2.5t50.5 4.5q-10 83 -38.5 170t-68 173
t-87 168t-95.5 155t-93.5 134.5t-81 106t-57.5 70.5t-23 27l231 237q84 -109 154.5 -219.5t128.5 -217t104 -206.5t81 -188t59.5 -162t39.5 -128q26 16 50.5 41.5t43.5 59t30.5 74t11.5 85.5q0 3 -0.5 8t-2.5 18.5t-6 40t-12 72t-19.5 113.5t-29 166.5t-40.5 230t-53 303.5
l302 73q0 -2 7 -45.5t18 -117t25 -170.5t28 -206.5t27 -225t22 -225.5zM530 1689q-2 19 -13.5 29t-27 13.5t-31.5 3t-26 -1.5q-27 -4 -50 -16t-43 -29t-36.5 -37.5t-31.5 -41.5q20 -6 47.5 -9t57 -1t58 8t50.5 17t35 27t11 38zM622 1691q-2 -58 -26.5 -95t-59.5 -59
t-73.5 -31t-66.5 -11q-83 -7 -134 5t-84 29t-55.5 32t-48.5 14q-12 0 -25 -5.5t-26 -14t-25.5 -18t-22.5 -18.5l-35 103q30 21 60.5 39t67.5 20q33 2 57 -6.5t47 -24.5q24 40 53.5 76.5t64 64t74.5 43.5t87 16q34 0 65 -12.5t54 -34t37 -50.5t15 -62z" />
    <glyph glyph-name="uni06440671.fina" unicode="&#xfee0;&#xfb51;" horiz-adv-x="1399" 
d="M1419 256v-316h-60q-108 0 -182.5 40t-121.5 119q-6 -8 -13 -15l-13 -13q-58 -53 -129 -91.5t-150 -64.5t-162.5 -38.5t-165.5 -12.5q-48 0 -104 5t-120 14l54 314q78 -10 129.5 -15t86.5 -5q18 0 47.5 2.5t50.5 4.5q-10 83 -38.5 170t-68 173t-87 168t-95.5 155
t-93.5 134.5t-81 106t-57.5 70.5t-23 27l231 237q84 -109 154.5 -219.5t128.5 -217t104 -206.5t81 -188t59.5 -162t39.5 -128q26 16 50.5 41.5t43.5 59t30.5 74t11.5 85.5q0 3 -0.5 8t-2.5 18.5t-6 40t-12 72t-19.5 113.5t-29 166.5t-40.5 230t-53 303.5l302 73
q0 -2 6.5 -41.5t16.5 -106.5t23 -156t26.5 -191t26 -211t22.5 -215q12 -87 24.5 -162.5t32 -131t49.5 -87t77 -31.5h20zM530 1689q-2 19 -13.5 29t-27 13.5t-31.5 3t-26 -1.5q-27 -4 -50 -16t-43 -29t-36.5 -37.5t-31.5 -41.5q20 -6 47.5 -9t57 -1t58 8t50.5 17t35 27t11 38
zM622 1691q-2 -58 -26.5 -95t-59.5 -59t-73.5 -31t-66.5 -11q-83 -7 -134 5t-84 29t-55.5 32t-48.5 14q-12 0 -25 -5.5t-26 -14t-25.5 -18t-22.5 -18.5l-35 103q30 21 60.5 39t67.5 20q33 2 57 -6.5t47 -24.5q24 40 53.5 76.5t64 64t74.5 43.5t87 16q34 0 65 -12.5t54 -34
t37 -50.5t15 -62z" />
    <glyph glyph-name="yeye" unicode="&#xfbff;&#xfbff;" horiz-adv-x="1796" 
d="M1794 -403l-192 -193l-190 190l-188 -188l-194 193l192 193l190 -190l188 188zM792 -489l-192 -193l-190 190l-188 -188l-194 193l192 193l190 -190l188 188zM1773 -60q-96 0 -164.5 29.5t-117.5 76.5q-45 -30 -103.5 -50t-124.5 -32.5t-136 -18t-138 -5.5h-136
q-96 0 -164.5 29.5t-117.5 76.5q-45 -30 -103.5 -50t-124.5 -32.5t-136 -18t-138 -5.5h-89v316h89q72 0 138.5 6t117.5 25.5t82.5 55t33.5 94.5q1 22 0.5 36.5t-5.5 35t-14.5 54t-26.5 94.5l291 82q19 -48 35 -127t24 -173q2 -30 7 -62t16.5 -59t31.5 -44.5t52 -17.5h137
q72 0 138.5 6t117.5 25.5t82.5 55t33.5 94.5q1 22 0.5 36.5t-5.5 35t-14.5 54t-26.5 94.5l291 82q19 -48 35 -127t24 -173q2 -30 7 -62t16.5 -59t31.5 -44.5t52 -17.5h44v-316h-43z" />
    <glyph glyph-name="yeye1" unicode="&#xfbfe;&#xfbff;" horiz-adv-x="1863" 
d="M1683 -388l-192 -193l-190 190l-188 -188l-194 193l192 193l190 -190l188 188zM782 -489l-192 -193l-190 190l-188 -188l-194 193l192 193l190 -190l188 188zM944 257h159q45 0 99 4t104 13t90.5 24.5t59.5 39.5q11 17 11 46q0 43 -20.5 102t-48.5 120t-57.5 117
t-47.5 93l285 140q31 -54 60 -127.5t52 -151t37 -152t14 -129.5q0 -101 -36 -185q-42 -94 -115 -155.5t-175 -90.5q-30 -8 -75 -13t-91 -7.5t-87 -3t-64 -0.5h-154l-91 -1q-96 0 -164.5 29.5t-117.5 76.5q-45 -30 -103.5 -50t-124.5 -32.5t-136 -18t-138 -5.5h-90v316h90
q72 0 138.5 6t117.5 25.5t82.5 55t33.5 94.5q1 22 0.5 36.5t-5.5 35t-14.5 54t-26.5 94.5l291 82q19 -48 35 -127t24 -173q2 -30 7 -62t16.5 -59t31.5 -44.5t52 -17.5q67 1 92 1z" />
    <glyph glyph-name="uni0621" unicode="&#x621;" horiz-adv-x="1019" arabic-form="isolated" 
d="M734 509q-34 10 -66.5 18.5t-70.5 13.5q-37 4 -77.5 -3.5t-73 -26t-51.5 -47.5t-12 -69v1q7 -24 28.5 -47.5t52 -40.5t67.5 -24.5t76 -0.5q40 8 86.5 25.5t88.5 36.5q24 11 48 22.5t48 24.5l60 -220q-27 -13 -54 -25.5t-63.5 -29t-88 -38t-128.5 -52t-184.5 -72
t-254.5 -97.5l-45 219l199 82q-38 37 -64 81.5t-40 92.5q-18 65 -5.5 131t48 123t90 99t119.5 60q73 19 158 5.5t201 -54.5l-92 -188v0z" />
    <glyph glyph-name="uni0622" unicode="&#x622;" horiz-adv-x="707" arabic-form="isolated" 
d="M217 -63q5 82 10 170t8.5 174t4.5 167t-2 149q-6 150 -12 262.5t-11.5 198t-11.5 149t-13 116.5l308 98q14 -114 22.5 -225.5t13.5 -212t6.5 -187t1.5 -150.5q0 -69 -0.5 -149t-2 -166t-4.5 -174t-9 -172l-309 -48v0zM-47 1529q9 50 35 96t62 81t79.5 55.5t89.5 20.5
q47 0 83.5 -11t68.5 -25q43 -18 75.5 -23.5t60 3.5t53 32t54.5 61l137 -88q-1 -3 -11 -17t-27.5 -34t-42.5 -42.5t-56 -42t-67 -32.5t-76 -14t-73 9t-64 22t-63.5 21.5t-70.5 8.5q-26 -1 -42 -16.5t-25 -36.5t-13.5 -43t-8.5 -34z" />
    <glyph glyph-name="uni0623" unicode="&#x623;" horiz-adv-x="599" arabic-form="isolated" 
d="M187 -63q5 82 10 170t8.5 174t4.5 167t-2 149q-6 150 -12 262.5t-11.5 198t-11.5 149t-13 116.5l308 98q14 -114 22.5 -225.5t13.5 -212t6.5 -187t1.5 -150.5q0 -69 -0.5 -149t-2 -166t-4.5 -174t-9 -172l-309 -48v0zM414 1917q-26 4 -46.5 8t-39 6.5t-36 1t-36.5 -8.5
q-20 -8 -36 -21t-26.5 -31t-12.5 -39.5t7 -46.5q6 -18 21.5 -29.5t33.5 -18.5t37 -8t33 2t23.5 6t26.5 10.5t48 23.5t89 46l76 -102l-257 -150l-240 -133l-62 113l166 93q-34 20 -60.5 50t-41.5 65q-17 42 -14.5 85t20.5 82t49 70.5t72 49.5q25 11 51 15.5t53 4.5
q13 0 25.5 -1t28 -3.5t36 -7t49.5 -11.5z" />
    <glyph glyph-name="uni0624" unicode="&#x624;" horiz-adv-x="1068" arabic-form="isolated" 
d="M28 -457q141 28 257 70.5t203.5 95t145 111.5t81.5 120q-43 0 -91 1.5t-79 3.5q-99 8 -180 37.5t-139.5 81t-90.5 125.5t-32 170q0 61 13 125t37.5 125t61 115t82.5 95t101.5 64.5t119.5 23.5q92 0 168 -40t134.5 -106.5t100.5 -153t67.5 -180t34 -186.5t0.5 -172
q-12 -117 -52.5 -219.5t-104 -189t-147.5 -157t-182 -124t-208.5 -89.5t-226.5 -54zM518 590q-21 4 -48 -14.5t-50 -50t-38.5 -69.5t-15.5 -73q0 -34 21 -56.5t54 -36.5t74.5 -21.5t82.5 -10t78 -2.5h62q-15 62 -35.5 119t-47.5 102t-61 75t-76 38zM581 1362q-26 4 -46.5 8
t-39 6.5t-36 1t-36.5 -8.5q-20 -8 -36 -21t-26.5 -31t-12.5 -39.5t7 -46.5q6 -18 21.5 -29.5t33.5 -18.5t37 -8t33 2t23.5 6t26.5 10.5t48 23.5t89 46l76 -102l-257 -150l-240 -133l-62 113l166 93q-34 20 -60.5 50t-41.5 65q-17 42 -14.5 85t20.5 82t49 70.5t72 49.5
q25 11 51 15.5t53 4.5q13 0 25.5 -1t28 -3.5t36 -7t49.5 -11.5z" />
    <glyph glyph-name="uni0625" unicode="&#x625;" horiz-adv-x="601" arabic-form="isolated" 
d="M163 -63q5 82 10 170t8.5 174t4.5 167t-2 149q-6 150 -12 262.5t-11.5 198t-11.5 149t-13 116.5l308 98q14 -114 22.5 -225.5t13.5 -212t6.5 -187t1.5 -150.5q0 -69 -0.5 -149t-2 -166t-4.5 -174t-9 -172l-309 -48v0zM414 -249q-26 4 -46.5 8t-39 6.5t-36 1t-36.5 -8.5
q-20 -8 -36 -21t-26.5 -31t-12.5 -39.5t7 -46.5q6 -18 21.5 -29.5t33.5 -18.5t37 -8t33 2t23.5 6t26.5 10.5t48 23.5t89 46l76 -102l-257 -150l-240 -133l-62 113l166 93q-34 20 -60.5 50t-41.5 65q-17 42 -14.5 85t20.5 82t49 70.5t72 49.5q25 11 51 15.5t53 4.5
q13 0 25.5 -1t28 -3.5t36 -7t49.5 -11.5z" />
    <glyph glyph-name="uni0626" unicode="&#x626;" horiz-adv-x="1776" arabic-form="isolated" 
d="M813 226q5 85 31 168.5t70 159t103.5 139.5t132 111t156 73.5t174.5 26.5q67 0 138.5 -19.5t143.5 -57.5l-111 -293q-48 21 -91 32.5t-81 11.5q-62 0 -127.5 -27t-122 -72.5t-96 -105.5t-49.5 -126q-2 -28 16 -46t48 -31t68 -22.5t77 -19.5q74 -20 143.5 -41t123 -55.5
t86 -89.5t32.5 -144q0 -106 -40.5 -188.5t-109.5 -145t-159.5 -105.5t-189.5 -70.5t-201 -39.5t-193 -12q-168 0 -309.5 43.5t-243.5 128t-159.5 209.5t-57.5 288q0 26 2 52t4 49q6 109 28.5 209t48 178t47 127t24.5 56l251 -105q-28 -66 -52.5 -132t-42.5 -134.5
t-28.5 -138.5t-10.5 -143q0 -105 42 -174.5t111.5 -111t159.5 -59t186 -17.5q127 0 237.5 17.5t194.5 46t135.5 66t59.5 76.5q-63 15 -133.5 30t-139 36.5t-130 52.5t-107 76.5t-70.5 110t-19 152.5zM742 1150q-26 4 -46.5 8t-39 6.5t-36 1t-36.5 -8.5q-20 -8 -36 -21
t-26.5 -31t-12.5 -39.5t7 -46.5q6 -18 21.5 -29.5t33.5 -18.5t37 -8t33 2t23.5 6t26.5 10.5t48 23.5t89 46l76 -102l-257 -150l-240 -133l-62 113l166 93q-34 20 -60.5 50t-41.5 65q-17 42 -14.5 85t20.5 82t49 70.5t72 49.5q25 11 51 15.5t53 4.5q13 0 25.5 -1t28 -3.5
t36 -7t49.5 -11.5z" />
    <glyph glyph-name="uni0627" unicode="&#x627;" horiz-adv-x="536" arabic-form="isolated" 
d="M143 -63q5 82 10 170t8.5 174t4.5 167t-2 149q-6 142 -11.5 249.5t-11 190.5t-11 145.5t-11.5 114.5t-13 97.5t-15 94.5l309 102q22 -134 35.5 -270t20.5 -260.5t9.5 -231.5t2.5 -183q0 -69 -0.5 -149t-2 -166t-4.5 -174t-9 -172l-309 -48v0z" />
    <glyph glyph-name="uni0628" unicode="&#x628;" horiz-adv-x="2013" arabic-form="isolated" 
d="M994 -60q-90 0 -194 7t-208 28t-201.5 59t-174 99t-125 148.5t-54.5 208.5q0 59 13 114.5t34.5 108.5t49 104.5t56.5 103.5l235 -197q-15 -21 -35 -54.5t-38.5 -70.5t-31 -74.5t-12.5 -65.5q0 -37 27.5 -66t75 -51.5t113 -38t142 -26t160 -15t168.5 -4.5q71 0 161.5 7
t186.5 22.5t191 40t174 59.5q-12 47 -28.5 90t-40.5 89.5t-57 99.5t-78 121l246 160q18 -29 42 -71t48.5 -90.5t48 -102.5t42 -108t28.5 -105.5t8 -96.5q-5 -84 -58 -148.5t-135.5 -112.5t-186 -81t-210 -53t-206.5 -29t-176 -9zM990 -608l-222 222l222 222l222 -222z" />
    <glyph glyph-name="uni0629" unicode="&#x629;" horiz-adv-x="990" arabic-form="isolated" 
d="M485 -60q-81 0 -163.5 28t-150 80.5t-110 128t-42.5 170.5q0 200 177 415q14 17 23.5 28t17.5 20t15 16l18 18l-61 52l199 243q51 -38 121.5 -102.5t164.5 -164.5q259 -295 259 -525q0 -100 -41 -176t-107 -127.5t-150 -77.5t-170 -26zM679 347q0 31 -20 70t-52.5 81.5
t-72.5 86t-80 83.5q-27 -30 -57 -67.5t-55 -79.5t-41 -86.5t-14 -87.5q1 -24 23 -42t52.5 -29t64.5 -16.5t58 -5.5q30 0 64.5 4.5t63 15.5t47.5 29t19 44zM470 1392l-188 -188l-194 193l192 193l190 -190l188 188l194 -193l-192 -193z" />
    <glyph glyph-name="uni062A" unicode="&#x62a;" horiz-adv-x="2013" arabic-form="isolated" 
d="M994 -60q-90 0 -194 7t-208 28t-201.5 59t-174 99t-125 148.5t-54.5 208.5q0 59 13 114.5t34.5 108.5t49 104.5t56.5 103.5l235 -197q-15 -21 -35 -54.5t-38.5 -70.5t-31 -74.5t-12.5 -65.5q0 -37 27.5 -66t75 -51.5t113 -38t142 -26t160 -15t168.5 -4.5q71 0 161.5 7
t186.5 22.5t191 40t174 59.5q-12 47 -28.5 90t-40.5 89.5t-57 99.5t-78 121l246 160q18 -29 42 -71t48.5 -90.5t48 -102.5t42 -108t28.5 -105.5t8 -96.5q-5 -84 -58 -148.5t-135.5 -112.5t-186 -81t-210 -53t-206.5 -29t-176 -9zM1011 1005l-188 -188l-194 193l192 193
l190 -190l188 188l194 -193l-192 -193z" />
    <glyph glyph-name="uni062B" unicode="&#x62b;" horiz-adv-x="2013" arabic-form="isolated" 
d="M994 -60q-90 0 -194 7t-208 28t-201.5 59t-174 99t-125 148.5t-54.5 208.5q0 59 13 114.5t34.5 108.5t49 104.5t56.5 103.5l235 -197q-15 -21 -35 -54.5t-38.5 -70.5t-31 -74.5t-12.5 -65.5q0 -37 27.5 -66t75 -51.5t113 -38t142 -26t160 -15t168.5 -4.5q71 0 161.5 7
t186.5 22.5t191 40t174 59.5q-12 47 -28.5 90t-40.5 89.5t-57 99.5t-78 121l246 160q18 -29 42 -71t48.5 -90.5t48 -102.5t42 -108t28.5 -105.5t8 -96.5q-5 -84 -58 -148.5t-135.5 -112.5t-186 -81t-210 -53t-206.5 -29t-176 -9zM1012 992l-188 -188l-194 193l192 193
l190 -190l188 188l194 -193l-192 -193zM1191 1284l-178 -178l-179 179l178 178z" />
    <glyph glyph-name="uni062C" unicode="&#x62c;" horiz-adv-x="1647" arabic-form="isolated" 
d="M1525 -595q-60 -54 -139 -100.5t-169.5 -81t-190.5 -54t-202 -19.5q-167 0 -311.5 46.5t-251.5 136.5t-168.5 222.5t-61.5 305.5q0 108 44.5 203.5t122 177t180.5 148t220.5 115t242 78.5t244.5 40q-58 19 -119.5 51t-122.5 63t-120 53t-111 20q-50 -2 -95 -20t-85 -45.5
t-75.5 -62.5t-66.5 -70l-221 161q51 73 102.5 136.5t113.5 111t141 75.5t185 31q63 2 125 -15t122.5 -45.5t118.5 -64t113 -71.5q54 -36 95.5 -64.5t76.5 -51t65 -39.5t61 -30t65.5 -23t77.5 -18l-95 -333l-93 2q-71 0 -152.5 -9.5t-167.5 -27.5t-172.5 -44.5t-166.5 -60.5
t-149 -75.5t-121 -90t-82.5 -103t-32.5 -115.5q-2 -67 20 -121t62 -95.5t94.5 -71.5t118 -49t132 -28t136.5 -9t133.5 8.5t130 28t128 51.5t128.5 80l143 -237v0zM898 -311l-222 222l222 222l222 -222z" />
    <glyph glyph-name="uni062D" unicode="&#x62d;" horiz-adv-x="1647" arabic-form="isolated" 
d="M1525 -595q-60 -54 -139 -100.5t-169.5 -81t-190.5 -54t-202 -19.5q-167 0 -311.5 46.5t-251.5 136.5t-168.5 222.5t-61.5 305.5q0 108 44.5 203.5t122 177t180.5 148t220.5 115t242 78.5t244.5 40q-58 19 -119.5 51t-122.5 63t-120 53t-111 20q-50 -2 -95 -20t-85 -45.5
t-75.5 -62.5t-66.5 -70l-221 161q51 73 102.5 136.5t113.5 111t141 75.5t185 31q63 2 125 -15t122.5 -45.5t118.5 -64t113 -71.5q54 -36 95.5 -64.5t76.5 -51t65 -39.5t61 -30t65.5 -23t77.5 -18l-95 -333l-93 2q-71 0 -152.5 -9.5t-167.5 -27.5t-172.5 -44.5t-166.5 -60.5
t-149 -75.5t-121 -90t-82.5 -103t-32.5 -115.5q-2 -67 20 -121t62 -95.5t94.5 -71.5t118 -49t132 -28t136.5 -9t133.5 8.5t130 28t128 51.5t128.5 80l143 -237v0z" />
    <glyph glyph-name="uni062E" unicode="&#x62e;" horiz-adv-x="1647" arabic-form="isolated" 
d="M1525 -595q-60 -54 -139 -100.5t-169.5 -81t-190.5 -54t-202 -19.5q-167 0 -311.5 46.5t-251.5 136.5t-168.5 222.5t-61.5 305.5q0 108 44.5 203.5t122 177t180.5 148t220.5 115t242 78.5t244.5 40q-58 19 -119.5 51t-122.5 63t-120 53t-111 20q-50 -2 -95 -20t-85 -45.5
t-75.5 -62.5t-66.5 -70l-221 161q51 73 102.5 136.5t113.5 111t141 75.5t185 31q63 2 125 -15t122.5 -45.5t118.5 -64t113 -71.5q54 -36 95.5 -64.5t76.5 -51t65 -39.5t61 -30t65.5 -23t77.5 -18l-95 -333l-93 2q-71 0 -152.5 -9.5t-167.5 -27.5t-172.5 -44.5t-166.5 -60.5
t-149 -75.5t-121 -90t-82.5 -103t-32.5 -115.5q-2 -67 20 -121t62 -95.5t94.5 -71.5t118 -49t132 -28t136.5 -9t133.5 8.5t130 28t128 51.5t128.5 80l143 -237v0zM622 1232l-222 222l222 222l222 -222z" />
    <glyph glyph-name="uni062F" unicode="&#x62f;" horiz-adv-x="1127" arabic-form="isolated" 
d="M157 407q42 -27 98.5 -54t116 -49.5t115.5 -36.5t97 -14q23 0 63.5 4t80 15.5t69 32.5t31.5 55q1 39 -23.5 88t-66 102.5t-96 108t-112.5 105t-116 94t-107 74.5l177 263q97 -68 192.5 -152.5t176 -178.5t140 -194.5t85.5 -202.5q8 -29 11 -58.5t3 -56.5
q0 -93 -36 -170.5t-100.5 -134t-154.5 -87.5t-198 -31q-8 0 -16 0.5t-16 0.5q-69 0 -141.5 14.5t-143 38.5t-137 56t-123.5 67l131 301v0z" />
    <glyph glyph-name="uni0630" unicode="&#x630;" horiz-adv-x="1138" arabic-form="isolated" 
d="M157 407q42 -27 98.5 -54t116 -49.5t115.5 -36.5t97 -14q23 0 63.5 4t80 15.5t69 32.5t31.5 55q1 39 -23.5 88t-66 102.5t-96 108t-112.5 105t-116 94t-107 74.5l177 263q97 -68 192.5 -152.5t176 -178.5t140 -194.5t85.5 -202.5q8 -29 11 -58.5t3 -56.5
q0 -93 -36 -170.5t-100.5 -134t-154.5 -87.5t-198 -31q-8 0 -16 0.5t-16 0.5q-69 0 -141.5 14.5t-143 38.5t-137 56t-123.5 67l131 301v0zM462 1292l-222 222l222 222l222 -222z" />
    <glyph glyph-name="uni0631" unicode="&#x631;" horiz-adv-x="739" arabic-form="isolated" 
d="M565 673q21 -62 44.5 -135.5t43 -150.5t32.5 -153.5t13 -143.5q0 -94 -25.5 -183.5t-72 -173.5t-110.5 -161t-142 -145.5t-167 -127t-184 -105.5l-182 253q72 36 145.5 81.5t141 97.5t126 109t102 116t68.5 119.5t25 118.5q0 42 -11.5 91t-31.5 105.5t-46.5 120
t-57.5 135.5l289 132v0z" />
    <glyph glyph-name="uni0632" unicode="&#x632;" horiz-adv-x="761" arabic-form="isolated" 
d="M565 673q21 -62 44.5 -135.5t43 -150.5t32.5 -153.5t13 -143.5q0 -94 -25.5 -183.5t-72 -173.5t-110.5 -161t-142 -145.5t-167 -127t-184 -105.5l-182 253q72 36 145.5 81.5t141 97.5t126 109t102 116t68.5 119.5t25 118.5q0 42 -11.5 91t-31.5 105.5t-46.5 120
t-57.5 135.5l289 132v0zM395 868l-222 222l222 222l222 -222z" />
    <glyph glyph-name="uni0633" unicode="&#x633;" horiz-adv-x="2692" arabic-form="isolated" 
d="M2488 995q6 -12 21.5 -43.5t35.5 -76t42 -99.5t40 -115.5t29.5 -123.5t11.5 -122q-1 -99 -29.5 -185t-83.5 -149.5t-136 -100.5t-187 -37q-92 0 -150.5 31t-96.5 85q-21 -27 -45 -48.5t-56.5 -37t-76 -23.5t-103.5 -8q-42 0 -77 6t-64 15q-1 -117 -35.5 -213t-94 -172
t-139.5 -132t-172 -92.5t-192.5 -54.5t-199.5 -18q-153 0 -283 50.5t-224.5 142t-147.5 220t-53 283.5q3 90 24.5 184t55 184t75 171.5t84.5 146.5l218 -168q-36 -59 -70 -125t-60 -134t-42 -136t-16 -131q-3 -76 30.5 -143t93 -117.5t140 -79.5t171.5 -29q103 0 190.5 19
t155 52.5t113.5 81t66 104.5l-1 -1q25 79 25 169q0 67 -19 136t-49 139.5t-66.5 142t-71.5 143.5l274 154q26 -59 52 -119t52.5 -114.5t54.5 -101.5t58 -80.5t62.5 -50.5t69.5 -12q42 6 68 29.5t39.5 58.5t17 78.5t1.5 88.5t-6.5 89t-7.5 81l276 37q7 -31 12 -74.5
t11.5 -91.5t16.5 -97t27 -91t42 -73t63 -44q31 0 58 11.5t47 33.5t31.5 54.5t11.5 75.5q0 36 -13.5 83.5t-36.5 102.5t-53.5 115.5t-64.5 122.5l256 143v0z" />
    <glyph glyph-name="uni0634" unicode="&#x634;" horiz-adv-x="2692" arabic-form="isolated" 
d="M2488 995q6 -12 21.5 -43.5t35.5 -76t42 -99.5t40 -115.5t29.5 -123.5t11.5 -122q-1 -99 -29.5 -185t-83.5 -149.5t-136 -100.5t-187 -37q-92 0 -150.5 31t-96.5 85q-21 -27 -45 -48.5t-56.5 -37t-76 -23.5t-103.5 -8q-42 0 -77 6t-64 15q-1 -117 -35.5 -213t-94 -172
t-139.5 -132t-172 -92.5t-192.5 -54.5t-199.5 -18q-153 0 -283 50.5t-224.5 142t-147.5 220t-53 283.5q3 90 24.5 184t55 184t75 171.5t84.5 146.5l218 -168q-36 -59 -70 -125t-60 -134t-42 -136t-16 -131q-3 -76 30.5 -143t93 -117.5t140 -79.5t171.5 -29q103 0 190.5 19
t155 52.5t113.5 81t66 104.5l-1 -1q25 79 25 169q0 67 -19 136t-49 139.5t-66.5 142t-71.5 143.5l274 154q26 -59 52 -119t52.5 -114.5t54.5 -101.5t58 -80.5t62.5 -50.5t69.5 -12q42 6 68 29.5t39.5 58.5t17 78.5t1.5 88.5t-6.5 89t-7.5 81l276 37q7 -31 12 -74.5
t11.5 -91.5t16.5 -97t27 -91t42 -73t63 -44q31 0 58 11.5t47 33.5t31.5 54.5t11.5 75.5q0 36 -13.5 83.5t-36.5 102.5t-53.5 115.5t-64.5 122.5l256 143v0zM1930 1200l-188 -188l-194 193l192 193l190 -190l188 188l194 -193l-192 -193zM2109 1492l-178 -178l-179 179
l178 178z" />
    <glyph glyph-name="uni0635" unicode="&#x635;" horiz-adv-x="2916" arabic-form="isolated" 
d="M816 -709q-151 0 -288.5 40t-242.5 121t-167 203.5t-62 286.5q0 72 12.5 145t32.5 143t45.5 135t50.5 121t48 101t39 76l224 -160q-7 -9 -23 -38.5t-35.5 -73t-40.5 -98.5t-38.5 -114.5t-28.5 -121t-11 -117.5q0 -91 42.5 -154t111 -102t153 -56.5t168.5 -17.5
q97 0 186.5 29t158.5 84.5t110 137t41 186.5q0 68 -16.5 135.5t-42.5 135.5t-57.5 137.5t-60.5 141.5l277 153q52 -132 90 -217t79 -126q36 56 82.5 115.5t103 116.5t123.5 108t143 89.5t161 61t179 22.5q97 0 188.5 -36t161 -100t108 -151t30.5 -190q-8 -101 -46.5 -180
t-98 -138.5t-136 -101t-159.5 -67.5t-169 -38t-165 -12q-129 0 -254.5 25.5t-243.5 81.5q-3 -157 -60.5 -289.5t-158 -228.5t-239.5 -150t-305 -54zM2307 595q-66 -18 -140 -51.5t-142.5 -78t-125.5 -97t-89 -108.5q26 -7 61 -13.5t72.5 -11.5t74 -8t66.5 -3q40 0 93 4.5
t109.5 15t111.5 28t99 43.5t72 62t31 83q2 41 -24.5 72t-69.5 49.5t-96 22.5t-103 -9z" />
    <glyph glyph-name="uni0636" unicode="&#x636;" horiz-adv-x="2912" arabic-form="isolated" 
d="M816 -709q-151 0 -288.5 40t-242.5 121t-167 203.5t-62 286.5q0 72 12.5 145t32.5 143t45.5 135t50.5 121t48 101t39 76l224 -160q-7 -9 -23 -38.5t-35.5 -73t-40.5 -98.5t-38.5 -114.5t-28.5 -121t-11 -117.5q0 -91 42.5 -154t111 -102t153 -56.5t168.5 -17.5
q97 0 186.5 29t158.5 84.5t110 137t41 186.5q0 68 -16.5 135.5t-42.5 135.5t-57.5 137.5t-60.5 141.5l277 153q52 -132 90 -217t79 -126q36 56 82.5 115.5t103 116.5t123.5 108t143 89.5t161 61t179 22.5q97 0 188.5 -36t161 -100t108 -151t30.5 -190q-8 -101 -46.5 -180
t-98 -138.5t-136 -101t-159.5 -67.5t-169 -38t-165 -12q-129 0 -254.5 25.5t-243.5 81.5q-3 -157 -60.5 -289.5t-158 -228.5t-239.5 -150t-305 -54zM2307 595q-66 -18 -140 -51.5t-142.5 -78t-125.5 -97t-89 -108.5q26 -7 61 -13.5t72.5 -11.5t74 -8t66.5 -3q40 0 93 4.5
t109.5 15t111.5 28t99 43.5t72 62t31 83q2 41 -24.5 72t-69.5 49.5t-96 22.5t-103 -9zM2328 1064l-222 222l222 222l222 -222z" />
    <glyph glyph-name="uni0637" unicode="&#x637;" horiz-adv-x="1816" arabic-form="isolated" 
d="M866 -60q-113 0 -218.5 7.5t-208 26.5t-205 52.5t-210.5 85.5l115 295q168 -64 266 -93q19 26 42.5 57.5t57.5 76.5q6 45 10.5 82.5t7 71.5t4 66t1.5 66q0 46 -4 117t-9.5 151.5t-13 163t-14 152.5t-12.5 119t-9 63l317 84l11 -106q8 -72 16.5 -154.5t15.5 -169.5
t12.5 -177t7.5 -177q48 42 94.5 77t98 60.5t112 40.5t136.5 17q79 2 156.5 -22.5t140.5 -72.5t106 -119.5t53 -162.5q1 -129 -38 -229.5t-105.5 -175.5t-155 -127.5t-186.5 -84.5t-199 -46.5t-193 -14.5zM1287 674q-60 0 -135.5 -31t-154.5 -87t-155.5 -134t-139.5 -172
q35 -3 73 -4.5t70 -1.5q150 0 270.5 30.5t205 77.5t129 103t41.5 107q-5 30 -28.5 51.5t-55 35t-64.5 19.5t-56 6z" />
    <glyph glyph-name="uni0638" unicode="&#x638;" horiz-adv-x="1807" arabic-form="isolated" 
d="M866 -60q-113 0 -218.5 7.5t-208 26.5t-205 52.5t-210.5 85.5l115 295q168 -64 266 -93q19 26 42.5 57.5t57.5 76.5q6 45 10.5 82.5t7 71.5t4 66t1.5 66q0 46 -4 117t-9.5 151.5t-13 163t-14 152.5t-12.5 119t-9 63l317 84l11 -106q8 -72 16.5 -154.5t15.5 -169.5
t12.5 -177t7.5 -177q48 42 94.5 77t98 60.5t112 40.5t136.5 17q79 2 156.5 -22.5t140.5 -72.5t106 -119.5t53 -162.5q1 -129 -38 -229.5t-105.5 -175.5t-155 -127.5t-186.5 -84.5t-199 -46.5t-193 -14.5zM1287 674q-60 0 -135.5 -31t-154.5 -87t-155.5 -134t-139.5 -172
q35 -3 73 -4.5t70 -1.5q150 0 270.5 30.5t205 77.5t129 103t41.5 107q-5 30 -28.5 51.5t-55 35t-64.5 19.5t-56 6zM1320 1212l-222 222l222 222l222 -222z" />
    <glyph glyph-name="uni0639" unicode="&#x639;" horiz-adv-x="1532" arabic-form="isolated" 
d="M828 -775q-100 0 -197 21t-184 61.5t-161 100t-127.5 136.5t-83.5 171.5t-30 204.5q0 121 34 224t96.5 190t149.5 158.5t192 128.5q-50 49 -84.5 127t-34.5 185q1 62 21 121.5t54 113.5t80.5 100t101 80.5t115 55t122.5 23.5q70 3 130 -6.5t114.5 -30t106.5 -52
t106 -72.5l-124 -237q-47 25 -99 45q-45 17 -101.5 29t-116.5 7q-38 -3 -80 -19t-77.5 -42t-59 -61t-23.5 -76q0 -35 24.5 -64.5t65.5 -50t95.5 -30.5t114.5 -6l376 25l-24 -313q-79 -10 -160 -17t-164.5 -20t-168 -36t-170.5 -65q-23 -11 -57 -30t-72 -46t-76 -62t-68 -77
t-49 -92.5t-19 -107.5q0 -61 21 -112t58 -91.5t87 -71.5t107 -51.5t119 -30.5t124 -10q59 0 124 9t131.5 28.5t133 50t128.5 74.5l156 -244q-78 -66 -166.5 -112.5t-177.5 -76.5t-175 -43.5t-158 -13.5z" />
    <glyph glyph-name="uni063A" unicode="&#x63a;" horiz-adv-x="1534" arabic-form="isolated" 
d="M828 -775q-100 0 -197 21t-184 61.5t-161 100t-127.5 136.5t-83.5 171.5t-30 204.5q0 121 34 224t96.5 190t149.5 158.5t192 128.5q-50 49 -84.5 127t-34.5 185q1 62 21 121.5t54 113.5t80.5 100t101 80.5t115 55t122.5 23.5q70 3 130 -6.5t114.5 -30t106.5 -52
t106 -72.5l-124 -237q-47 25 -99 45q-45 17 -101.5 29t-116.5 7q-38 -3 -80 -19t-77.5 -42t-59 -61t-23.5 -76q0 -35 24.5 -64.5t65.5 -50t95.5 -30.5t114.5 -6l376 25l-24 -313q-79 -10 -160 -17t-164.5 -20t-168 -36t-170.5 -65q-23 -11 -57 -30t-72 -46t-76 -62t-68 -77
t-49 -92.5t-19 -107.5q0 -61 21 -112t58 -91.5t87 -71.5t107 -51.5t119 -30.5t124 -10q59 0 124 9t131.5 28.5t133 50t128.5 74.5l156 -244q-78 -66 -166.5 -112.5t-177.5 -76.5t-175 -43.5t-158 -13.5zM912 1519l-222 222l222 222l222 -222z" />
    <glyph glyph-name="uni0641" unicode="&#x641;" horiz-adv-x="1985" arabic-form="isolated" 
d="M1056 256q38 0 90 0.5t111.5 3t121.5 7.5t118.5 15t103.5 25t77 37q-131 -13 -240.5 -7t-189 42t-124 107.5t-45.5 191.5q0 55 11 113.5t33.5 115t55.5 107t76.5 88.5t97 60.5t116.5 22.5q79 0 144.5 -30t118 -81.5t92 -119.5t65.5 -143t39 -153t13 -150
q0 -120 -33.5 -209t-93.5 -152t-142.5 -103.5t-181 -63.5t-208.5 -31.5t-225 -8.5q-121 0 -244 8t-237 29.5t-213 59.5t-172.5 99t-115.5 148t-42 206q0 59 13 114.5t34.5 108.5t49 104.5t56.5 103.5l235 -197q-15 -21 -35 -54.5t-38.5 -70.5t-31 -74.5t-12.5 -65.5
q0 -48 59.5 -85.5t161.5 -64t239 -40t292 -13.5zM1467 867q-23 1 -47.5 -13.5t-44.5 -38.5t-33.5 -55t-13.5 -63q0 -30 18.5 -49t47.5 -30t65.5 -15.5t72 -5t66.5 1t50 3.5q-9 45 -23.5 91t-36.5 84t-52 63t-69 27zM1486 1287l-222 222l222 222l222 -222z" />
    <glyph glyph-name="uni0642" unicode="&#x642;" horiz-adv-x="1574" arabic-form="isolated" 
d="M775 -381q87 0 162.5 24t137 66.5t107.5 101.5t73 129q-159 1 -278 21.5t-199 68t-121.5 126t-45.5 195.5q0 54 13.5 116.5t39 124t63 118t84.5 99.5t104 69t122 26q96 0 172.5 -40t135 -106.5t99 -152.5t65 -178t32.5 -183.5t2 -168.5q0 -98 -27.5 -193.5t-77.5 -181.5
t-120.5 -159t-156 -126.5t-184.5 -83.5t-206 -30q-152 0 -287.5 48.5t-237 139t-161 219t-59.5 289.5q0 75 7.5 143.5t24 136t43.5 137t66 146.5l252 -106q-39 -72 -63.5 -134.5t-38 -118t-18.5 -106t-5 -97.5q0 -89 40 -160t106.5 -120t153.5 -74.5t181 -24.5zM1037 585
q-29 3 -61 -17t-57.5 -54t-39 -76t-3.5 -82q9 -38 38.5 -58t80 -29.5t121 -11t161.5 -1.5q-3 42 -21 96.5t-49.5 104t-74.5 86t-95 42.5zM1014 1235l-188 -188l-194 193l192 193l190 -190l188 188l194 -193l-192 -193z" />
    <glyph glyph-name="uni0643" unicode="&#x643;" horiz-adv-x="2024" arabic-form="isolated" 
d="M1947.5 566q-0.5 -53 -7 -105t-21 -99.5t-39.5 -81.5q-81 -110 -178 -177t-210.5 -105t-243.5 -52t-277 -17q-188 2 -336.5 24t-260.5 64q-75 28 -141 71.5t-114.5 101.5t-76.5 130.5t-28 159.5q0 100 34.5 193t86.5 182l233 -175q-34 -54 -57 -103.5t-23 -100.5
q0 -72 55 -116.5t148.5 -69t217.5 -33.5t262 -9q307 0 485 67h-1q31 13 62.5 30t56.5 40.5t41 55t18 74.5l-1 996l312 71q4 -963 3.5 -1016zM1147 850q-24 4 -47.5 7t-49.5 3t-53 -9.5t-48 -25.5t-31 -38t-1 -47q7 -16 23.5 -30t39 -23t49 -10.5t52.5 7.5q45 15 87 40.5
t89 59.5l62 -146q-18 -11 -35 -22t-40.5 -25.5t-57 -34t-83.5 -48t-120 -67t-166 -90.5l-51 145l129 76q-29 21 -51.5 49t-36.5 60q-20 42 -17.5 88t22 88.5t53.5 77.5t77 53q59 25 122 20.5t128 -20.5z" />
    <glyph glyph-name="uni0644" unicode="&#x644;" horiz-adv-x="1483" arabic-form="isolated" 
d="M394 294q-14 -26 -26 -54t-23 -57q-18 -51 -32.5 -114t-10.5 -129q3 -57 23 -104t51.5 -85t71 -66t81 -47t82.5 -28.5t75 -9.5q43 0 92 9.5t98 29.5t94 50.5t80 74t55.5 99.5t20.5 126q0 79 -4.5 186.5t-11 229t-15.5 250.5t-18 252q-11 148 -22.5 294.5t-25.5 307.5
l319 74q7 -172 13.5 -328t11.5 -312q5 -130 9.5 -266t8.5 -263.5t6 -238t2 -189.5q0 -132 -32 -235.5t-86 -181.5t-125.5 -132t-150 -88t-159.5 -49.5t-154 -15.5t-151 16.5t-152 50.5t-140 86t-115 122.5t-77 160t-26 198.5q2 121 19.5 212.5t38.5 154.5q13 38 27 70.5
t28 58.5l250 -120v0z" />
    <glyph glyph-name="uni0645" unicode="&#x645;" horiz-adv-x="1237" arabic-form="isolated" 
d="M76 -796l-39 990q0 7 2 34.5t11.5 63.5t31 75t60.5 69q18 16 41.5 26.5t49 16.5t51.5 7t50 -1q29 73 71 148t98 135.5t125.5 98.5t153.5 38q66 -2 121 -22.5t99.5 -55t78.5 -81t57 -100.5t34.5 -113t11.5 -119q0 -45 -9 -96t-26 -100.5t-42 -95t-56 -80t-68 -55
t-79 -20.5q-75 0 -159.5 20t-164.5 49.5t-147 64t-106 64.5q6 -110 14.5 -225.5t17.5 -231.5t17 -231t14 -224zM776 594q-37 1 -65.5 -18.5t-51 -48.5t-38.5 -62.5t-28 -60.5q30 -17 72 -35t87.5 -34.5t90 -29t78.5 -18.5q18 45 14.5 98t-23.5 99t-55 77.5t-81 32.5z" />
    <glyph glyph-name="uni0646" unicode="&#x646;" horiz-adv-x="1619" arabic-form="isolated" 
d="M813 -749q-172 0 -313 44t-241.5 131.5t-156 218t-55.5 303.5q0 166 52.5 331t155.5 323l225 -162q-20 -27 -47 -81t-52 -123t-42 -146.5t-17 -149.5q0 -83 37.5 -150t100 -115t144 -75t169.5 -29q106 -2 204 27.5t171.5 83t115.5 127t38 159.5q-2 43 -16 97t-33.5 110.5
t-43 112t-44 101.5t-35.5 79t-19 45l272 151q4 -4 20 -39t37.5 -90.5t46 -126.5t44.5 -147t33.5 -151t13.5 -138q0 -89 -20 -177t-61.5 -168.5t-104 -149t-147.5 -119t-193 -79t-239 -28.5zM820 454l-222 222l222 222l222 -222z" />
    <glyph glyph-name="uni0647" unicode="&#x647;" horiz-adv-x="990" arabic-form="isolated" 
d="M485 -60q-81 0 -163.5 28t-150 80.5t-110 128t-42.5 170.5q0 200 177 415q14 17 23.5 28t17.5 20t15 16l18 18l-61 52l199 243q51 -38 121.5 -102.5t164.5 -164.5q259 -295 259 -525q0 -100 -41 -176t-107 -127.5t-150 -77.5t-170 -26zM679 347q0 31 -20 70t-52.5 81.5
t-72.5 86t-80 83.5q-27 -30 -57 -67.5t-55 -79.5t-41 -86.5t-14 -87.5q1 -24 23 -42t52.5 -29t64.5 -16.5t58 -5.5q30 0 64.5 4.5t63 15.5t47.5 29t19 44z" />
    <glyph glyph-name="uni0648" unicode="&#x648;" horiz-adv-x="1078" arabic-form="isolated" 
d="M28 -457q141 28 257 70.5t203.5 95t145 111.5t81.5 120q-43 0 -91 1.5t-79 3.5q-99 8 -180 37.5t-139.5 81t-90.5 125.5t-32 170q0 61 13 125t37.5 125t61 115t82.5 95t101.5 64.5t119.5 23.5q92 0 168 -40t134.5 -106.5t100.5 -153t67.5 -180t34 -186.5t0.5 -172
q-12 -117 -52.5 -219.5t-104 -189t-147.5 -157t-182 -124t-208.5 -89.5t-226.5 -54zM518 590q-21 4 -48 -14.5t-50 -50t-38.5 -69.5t-15.5 -73q0 -34 21 -56.5t54 -36.5t74.5 -21.5t82.5 -10t78 -2.5h62q-15 62 -35.5 119t-47.5 102t-61 75t-76 38z" />
    <glyph glyph-name="uni0649" unicode="&#x649;" horiz-adv-x="1793" arabic-form="isolated" 
d="M813 226q5 85 31 168.5t70 159t103.5 139.5t132 111t156 73.5t174.5 26.5q67 0 138.5 -19.5t143.5 -57.5l-111 -293q-48 21 -91 32.5t-81 11.5q-62 0 -127.5 -27t-122 -72.5t-96 -105.5t-49.5 -126q-2 -28 16 -46t48 -31t68 -22.5t77 -19.5q74 -20 143.5 -41t123 -55.5
t86 -89.5t32.5 -144q0 -106 -40.5 -188.5t-109.5 -145t-159.5 -105.5t-189.5 -70.5t-201 -39.5t-193 -12q-168 0 -309.5 43.5t-243.5 128t-159.5 209.5t-57.5 288q0 26 2 52t4 49q6 109 28.5 209t48 178t47 127t24.5 56l251 -105q-28 -66 -52.5 -132t-42.5 -134.5
t-28.5 -138.5t-10.5 -143q0 -105 42 -174.5t111.5 -111t159.5 -59t186 -17.5q127 0 237.5 17.5t194.5 46t135.5 66t59.5 76.5q-63 15 -133.5 30t-139 36.5t-130 52.5t-107 76.5t-70.5 110t-19 152.5z" />
    <glyph glyph-name="uni064A" unicode="&#x64a;" horiz-adv-x="1774" arabic-form="isolated" 
d="M813 226q5 85 31 168.5t70 159t103.5 139.5t132 111t156 73.5t174.5 26.5q67 0 138.5 -19.5t143.5 -57.5l-111 -293q-48 21 -91 32.5t-81 11.5q-62 0 -127.5 -27t-122 -72.5t-96 -105.5t-49.5 -126q-2 -28 16 -46t48 -31t68 -22.5t77 -19.5q74 -20 143.5 -41t123 -55.5
t86 -89.5t32.5 -144q0 -106 -40.5 -188.5t-109.5 -145t-159.5 -105.5t-189.5 -70.5t-201 -39.5t-193 -12q-168 0 -309.5 43.5t-243.5 128t-159.5 209.5t-57.5 288q0 26 2 52t4 49q6 109 28.5 209t48 178t47 127t24.5 56l251 -105q-28 -66 -52.5 -132t-42.5 -134.5
t-28.5 -138.5t-10.5 -143q0 -105 42 -174.5t111.5 -111t159.5 -59t186 -17.5q127 0 237.5 17.5t194.5 46t135.5 66t59.5 76.5q-63 15 -133.5 30t-139 36.5t-130 52.5t-107 76.5t-70.5 110t-19 152.5zM813 -1009l-188 -188l-194 193l192 193l190 -190l188 188l194 -193
l-192 -193z" />
    <glyph glyph-name="uni066E.init" unicode="&#x66e;" horiz-adv-x="715" 
d="M-20 256h135q42 0 92.5 7t94 22.5t73 42t29.5 65.5q0 24 -14 71.5t-37 106t-52 122.5t-58 122l286 142q28 -63 55.5 -134t49.5 -144t35.5 -145.5t13.5 -138.5q0 -120 -40 -206t-112 -141.5t-172 -81.5t-220 -26h-159v316z" />
    <glyph glyph-name="uni066E.medi" unicode="&#x66e;" horiz-adv-x="705" 
d="M725 256v-316h-22q-97 0 -164 27t-117 74q-72 -53 -169.5 -77t-235.5 -24h-37v316h37q138 0 208 45t70 135q0 30 -8 84.5t-33 143.5l283 69q16 -55 26.5 -97.5t16.5 -77.5t9 -64.5t5 -57.5t6 -59.5t15.5 -58.5t32 -44.5t55.5 -17.5h22z" />
    <glyph glyph-name="uni066E.fina" unicode="&#x66e;" horiz-adv-x="2316" 
d="M2300 -60q-83 0 -151 13t-124.5 41t-101.5 72.5t-81 107.5q-142 -121 -343.5 -179t-470.5 -58q-350 0 -578 77.5t-326 241.5q-32 53 -46 122t-8.5 151t32 173.5t76.5 189.5l238 -138q-20 -39 -38 -84.5t-27.5 -91t-9 -88t18.5 -75.5q30 -56 95.5 -88t155 -48t196.5 -19.5
t221 -3.5q105 0 199 7.5t173.5 24t144 43t110.5 64.5q42 34 69 75t46 86.5t31.5 95.5t24.5 101l280 -71l-41 -212q-9 -46 2 -85t41 -67.5t78.5 -45t113.5 -16.5h36v-316h-36v0z" />
    <glyph glyph-name="uni066F.init" unicode="&#x66f;" horiz-adv-x="932" 
d="M15 256q37 0 89.5 0.5t112 3t121.5 7.5t118.5 15t103.5 25t77 37q-131 -13 -240.5 -7t-189 42t-124 107.5t-45.5 191.5q0 55 11 113.5t33.5 115t55.5 107t76.5 88.5t97 60.5t116.5 22.5q79 0 144.5 -30t118 -81.5t92 -119.5t65.5 -143t39 -153t13 -150q0 -120 -33.5 -209
t-93.5 -152t-142.5 -103.5t-181 -63.5t-208.5 -31.5t-225 -8.5h-36v316h35zM426 867q-23 1 -47.5 -13.5t-44.5 -38.5t-33.5 -55t-13.5 -63q0 -30 18.5 -49t47.5 -30t65.5 -15.5t72 -5t66.5 1t50 3.5q-9 45 -23.5 91t-36.5 84t-52 63t-69 27z" />
    <glyph glyph-name="uni066F.medi" unicode="&#x66f;" horiz-adv-x="1001" 
d="M-20 256h72q23 0 47 1.5t45 4t32 7.5q-18 20 -35 43.5t-30.5 51.5t-22.5 60.5t-11 70.5q-2 59 12.5 119.5t42.5 117.5t68 106.5t89 86t105.5 56t117.5 17.5q87 -4 162 -45t129.5 -106t86 -147.5t31.5 -169.5q0 -69 -23 -135.5t-58 -126.5q26 -6 64 -9t97 -3h20v-316h-39
q-65 0 -123.5 3.5t-115 12.5t-113 24.5t-117.5 40.5q-37 -21 -92.5 -36.5t-121.5 -25t-138 -14.5t-142 -5h-39v316zM656 507q0 32 -15.5 61t-38 52t-48.5 38.5t-47 21.5q-23 -5 -52.5 -18t-56 -36.5t-44.5 -57t-18 -79.5q0 -15 15.5 -41.5t40 -54t56 -51t64.5 -33.5
q25 14 51 38.5t46.5 52t33.5 56t13 51.5z" />
    <glyph glyph-name="uni066F.fina" unicode="&#x66f;" horiz-adv-x="1570" 
d="M775 -381q87 0 162.5 24t137 66.5t107.5 101.5t73 129q-159 1 -278 21.5t-199 68t-121.5 126t-45.5 195.5q0 54 13.5 116.5t39 124t63 118t84.5 99.5t104 69t122 26q79 0 144.5 -27.5t119 -75t94.5 -110.5t70.5 -135t48 -149t26.5 -151h50v-316h-61
q-25 -128 -93.5 -243.5t-169 -203.5t-227 -140t-268.5 -52q-152 0 -287.5 48.5t-237 139t-161 219t-59.5 289.5q0 75 7.5 143.5t24 136t43.5 137t66 146.5l252 -106q-39 -72 -63.5 -134.5t-38 -118t-18.5 -106t-5 -97.5q0 -89 40 -160t106.5 -120t153.5 -74.5t181 -24.5z
M1037 585q-29 3 -61 -17t-57.5 -54t-39 -76t-3.5 -82q9 -38 38.5 -58t80 -29.5t121 -11t161.5 -1.5q-3 42 -21 96.5t-49.5 104t-74.5 86t-95 42.5z" />
    <glyph glyph-name="uni0671" unicode="&#x671;" horiz-adv-x="509" arabic-form="isolated" 
d="M127 -63q5 82 10 170t8.5 174t4.5 167t-2 149q-6 150 -12 262.5t-11.5 198t-11.5 149t-13 116.5l308 98q14 -114 22.5 -225.5t13.5 -212t6.5 -187t1.5 -150.5q0 -69 -0.5 -149t-2 -166t-4.5 -174t-9 -172l-309 -48v0zM516 1770q-2 19 -13.5 29t-27 13.5t-31.5 3t-26 -1.5
q-27 -4 -50 -16t-43 -29t-36.5 -37.5t-31.5 -41.5q20 -6 47.5 -9t57 -1t58 8t50.5 17t35 27t11 38zM608 1772q-2 -58 -26.5 -95t-59.5 -59t-73.5 -31t-66.5 -11q-83 -7 -134 5t-84 29t-55.5 32t-48.5 14q-12 0 -25 -5.5t-26 -14t-25.5 -18t-22.5 -18.5l-35 103
q30 21 60.5 39t67.5 20q33 2 57 -6.5t47 -24.5q24 40 53.5 76.5t64 64t74.5 43.5t87 16q34 0 65 -12.5t54 -34t37 -50.5t15 -62z" />
    <glyph glyph-name="uni0679" unicode="&#x679;" horiz-adv-x="2013" arabic-form="isolated" 
d="M994 -60q-90 0 -194 7t-208 28t-201.5 59t-174 99t-125 148.5t-54.5 208.5q0 59 13 114.5t34.5 108.5t49 104.5t56.5 103.5l235 -197q-15 -21 -35 -54.5t-38.5 -70.5t-31 -74.5t-12.5 -65.5q0 -37 27.5 -66t75 -51.5t113 -38t142 -26t160 -15t168.5 -4.5q71 0 161.5 7
t186.5 22.5t191 40t174 59.5q-12 47 -28.5 90t-40.5 89.5t-57 99.5t-78 121l246 160q18 -29 42 -71t48.5 -90.5t48 -102.5t42 -108t28.5 -105.5t8 -96.5q-5 -84 -58 -148.5t-135.5 -112.5t-186 -81t-210 -53t-206.5 -29t-176 -9zM1001 812q-44 0 -85.5 3.5t-84 12
t-86.5 21.5t-92 32l43 107q35 -14 62 -23t51 -15q12 15 25 33.5t32 54.5q4 16 4.5 43t-1 58.5t-4.5 65t-5 62.5q-2 23 -4 45.5t-5 48.5t-7 56.5t-9 68.5l116 32q8 -93 19 -184t12 -188q91 79 180 94q34 5 70.5 -3t68 -27.5t53.5 -49.5t25 -69q4 -53 -13.5 -94t-49 -72
t-73.5 -52.5t-85.5 -35t-84.5 -19.5t-72 -6zM918 929q23 -1 38 -1h29q26 0 62 3t74 11.5t74.5 23.5t63.5 39q14 14 22.5 31.5t8.5 31.5q0 28 -30 45.5t-80 12.5q-29 -3 -63.5 -20.5t-70 -44.5t-68.5 -61.5t-60 -70.5z" />
    <glyph glyph-name="uni067E" unicode="&#x67e;" horiz-adv-x="2013" arabic-form="isolated" 
d="M994 -60q-90 0 -194 7t-208 28t-201.5 59t-174 99t-125 148.5t-54.5 208.5q0 59 13 114.5t34.5 108.5t49 104.5t56.5 103.5l235 -197q-15 -21 -35 -54.5t-38.5 -70.5t-31 -74.5t-12.5 -65.5q0 -37 27.5 -66t75 -51.5t113 -38t142 -26t160 -15t168.5 -4.5q71 0 161.5 7
t186.5 22.5t191 40t174 59.5q-12 47 -28.5 90t-40.5 89.5t-57 99.5t-78 121l246 160q18 -29 42 -71t48.5 -90.5t48 -102.5t42 -108t28.5 -105.5t8 -96.5q-5 -84 -58 -148.5t-135.5 -112.5t-186 -81t-210 -53t-206.5 -29t-176 -9zM996 -389l188 188l194 -193l-192 -193
l-190 190l-188 -188l-194 193l192 193zM817 -681l178 178l179 -179l-178 -178z" />
    <glyph glyph-name="uni0686" unicode="&#x686;" horiz-adv-x="1647" arabic-form="isolated" 
d="M1525 -595q-60 -54 -139 -100.5t-169.5 -81t-190.5 -54t-202 -19.5q-167 0 -311.5 46.5t-251.5 136.5t-168.5 222.5t-61.5 305.5q0 108 44.5 203.5t122 177t180.5 148t220.5 115t242 78.5t244.5 40q-58 19 -119.5 51t-122.5 63t-120 53t-111 20q-50 -2 -95 -20t-85 -45.5
t-75.5 -62.5t-66.5 -70l-221 161q51 73 102.5 136.5t113.5 111t141 75.5t185 31q63 2 125 -15t122.5 -45.5t118.5 -64t113 -71.5q54 -36 95.5 -64.5t76.5 -51t65 -39.5t61 -30t65.5 -23t77.5 -18l-95 -333l-93 2q-71 0 -152.5 -9.5t-167.5 -27.5t-172.5 -44.5t-166.5 -60.5
t-149 -75.5t-121 -90t-82.5 -103t-32.5 -115.5q-2 -67 20 -121t62 -95.5t94.5 -71.5t118 -49t132 -28t136.5 -9t133.5 8.5t130 28t128 51.5t128.5 80l143 -237v0zM896 -28.6904l175.699 175.769l181.307 -180.443l-179.438 -180.442l-177.568 177.638l-175.699 -175.768
l-181.307 180.442l179.438 180.442zM728.712 -301.691l166.354 166.418l167.288 -167.354l-166.354 -166.418z" />
    <glyph glyph-name="uni0688" unicode="&#x688;" horiz-adv-x="1138" arabic-form="isolated" 
d="M157 407q42 -27 98.5 -54t116 -49.5t115.5 -36.5t97 -14q23 0 63.5 4t80 15.5t69 32.5t31.5 55q1 39 -23.5 88t-66 102.5t-96 108t-112.5 105t-116 94t-107 74.5l177 263q97 -68 192.5 -152.5t176 -178.5t140 -194.5t85.5 -202.5q8 -29 11 -58.5t3 -56.5
q0 -93 -36 -170.5t-100.5 -134t-154.5 -87.5t-198 -31q-8 0 -16 0.5t-16 0.5q-69 0 -141.5 14.5t-143 38.5t-137 56t-123.5 67l131 301v0zM506 1292q-44 0 -85.5 3.5t-84 12t-86.5 21.5t-92 32l43 107q35 -14 62 -23t51 -15q12 15 25 33.5t32 54.5q4 16 4.5 43t-1 58.5
t-4.5 65t-5 62.5q-2 23 -4 45.5t-5 48.5t-7 56.5t-9 68.5l116 32q8 -93 19 -184t12 -188q91 79 180 94q34 5 70.5 -3t68 -27.5t53.5 -49.5t25 -69q4 -53 -13.5 -94t-49 -72t-73.5 -52.5t-85.5 -35t-84.5 -19.5t-72 -6zM423 1409q23 -1 38 -1h29q26 0 62 3t74 11.5t74.5 23.5
t63.5 39q14 14 22.5 31.5t8.5 31.5q0 28 -30 45.5t-80 12.5q-29 -3 -63.5 -20.5t-70 -44.5t-68.5 -61.5t-60 -70.5z" />
    <glyph glyph-name="uni0691" unicode="&#x691;" horiz-adv-x="749" arabic-form="isolated" 
d="M565 673q21 -62 44.5 -135.5t43 -150.5t32.5 -153.5t13 -143.5q0 -94 -25.5 -183.5t-72 -173.5t-110.5 -161t-142 -145.5t-167 -127t-184 -105.5l-182 253q72 36 145.5 81.5t141 97.5t126 109t102 116t68.5 119.5t25 118.5q0 42 -11.5 91t-31.5 105.5t-46.5 120
t-57.5 135.5l289 132v0zM398 826q-44 0 -85.5 3.5t-84 12t-86.5 21.5t-92 32l43 107q35 -14 62 -23t51 -15q12 15 25 33.5t32 54.5q4 16 4.5 43t-1 58.5t-4.5 65t-5 62.5q-2 23 -4 45.5t-5 48.5t-7 56.5t-9 68.5l116 32q8 -93 19 -184t12 -188q91 79 180 94q34 5 70.5 -3
t68 -27.5t53.5 -49.5t25 -69q4 -53 -13.5 -94t-49 -72t-73.5 -52.5t-85.5 -35t-84.5 -19.5t-72 -6zM315 943q23 -1 38 -1h29q26 0 62 3t74 11.5t74.5 23.5t63.5 39q14 14 22.5 31.5t8.5 31.5q0 28 -30 45.5t-80 12.5q-29 -3 -63.5 -20.5t-70 -44.5t-68.5 -61.5t-60 -70.5z
" />
    <glyph glyph-name="uni0698" unicode="&#x698;" horiz-adv-x="760" arabic-form="isolated" 
d="M565 673q21 -62 44.5 -135.5t43 -150.5t32.5 -153.5t13 -143.5q0 -94 -25.5 -183.5t-72 -173.5t-110.5 -161t-142 -145.5t-167 -127t-184 -105.5l-182 253q72 36 145.5 81.5t141 97.5t126 109t102 116t68.5 119.5t25 118.5q0 42 -11.5 91t-31.5 105.5t-46.5 120
t-57.5 135.5l289 132v0zM393 1012l-188 -188l-194 193l192 193l190 -190l188 188l194 -193l-192 -193zM572 1304l-178 -178l-179 179l178 178z" />
    <glyph glyph-name="uni06A9" unicode="&#x6a9;" horiz-adv-x="2138" arabic-form="isolated" 
d="M971 261q54 -1 127 -1.5t150.5 4.5t152.5 16.5t134.5 34.5t96 59t36.5 90q0 43 -36.5 95t-107.5 119.5t-176 153.5t-242 197l33 296l902 393l124 -294l-705 -301q56 -47 114 -97t112 -102.5t101 -107t82 -111t53.5 -114.5t16.5 -118q-5 -132 -52.5 -222.5t-123 -149.5
t-173 -91t-204 -47t-214 -17.5t-203.5 -2.5q-104 0 -215.5 8t-217.5 29.5t-201 60t-166 99.5t-113 147.5t-42 205.5q0 97 33.5 190t89.5 180l237 -173q-14 -25 -30.5 -51t-30 -53t-22.5 -55t-9 -56q0 -39 27.5 -69.5t76 -53t114 -38.5t142 -27t160.5 -17t169 -9z" />
    <glyph glyph-name="uni06AF" unicode="&#x6af;" horiz-adv-x="2138" arabic-form="isolated" 
d="M971 261q54 -1 127 -1.5t150.5 4.5t152.5 16.5t134.5 34.5t96 59t36.5 90q0 43 -36.5 95t-107.5 119.5t-176 153.5t-242 197l33 296l902 393l124 -294l-705 -301q56 -47 114 -97t112 -102.5t101 -107t82 -111t53.5 -114.5t16.5 -118q-5 -132 -52.5 -222.5t-123 -149.5
t-173 -91t-204 -47t-214 -17.5t-203.5 -2.5q-104 0 -215.5 8t-217.5 29.5t-201 60t-166 99.5t-113 147.5t-42 205.5q0 97 33.5 190t89.5 180l237 -173q-14 -25 -30.5 -51t-30 -53t-22.5 -55t-9 -56q0 -39 27.5 -69.5t76 -53t114 -38.5t142 -27t160.5 -17t169 -9zM1165 1586
l765 319l55 -119l-828 -350z" />
    <glyph glyph-name="uni06BA" unicode="&#x6ba;" horiz-adv-x="1630" arabic-form="isolated" 
d="M813 -749q-172 0 -313 44t-241.5 131.5t-156 218t-55.5 303.5q0 166 52.5 331t155.5 323l225 -162q-20 -27 -47 -81t-52 -123t-42 -146.5t-17 -149.5q0 -83 37.5 -150t100 -115t144 -75t169.5 -29q106 -2 204 27.5t171.5 83t115.5 127t38 159.5q-2 43 -16 97t-33.5 110.5
t-43 112t-44 101.5t-35.5 79t-19 45l272 151q4 -4 20 -39t37.5 -90.5t46 -126.5t44.5 -147t33.5 -151t13.5 -138q0 -89 -20 -177t-61.5 -168.5t-104 -149t-147.5 -119t-193 -79t-239 -28.5z" />
    <glyph glyph-name="uni06BE" unicode="&#x6be;" horiz-adv-x="1520" arabic-form="isolated" 
d="M68 311l211 -49q-35 60 -53 127.5t-18 136.5q0 106 40 203.5t121 167.5q-11 5 -19.5 10t-16.5 10l-16 9l193 284q43 -30 95 -61t108 -61.5t114 -59t114 -53.5q95 -44 165 -77.5t124 -66t97 -68.5t84 -84q52 -66 75 -144t23 -151q0 -112 -57.5 -211.5t-169.5 -166.5
q-31 -18 -72.5 -31t-86.5 -21.5t-89 -12.5t-80 -4q-85 0 -170 15t-163 47q-49 -14 -117 -22t-148 -8t-168.5 9t-178.5 28zM662 746q-32 5 -65 -19t-58.5 -62t-40 -83.5t-10.5 -84.5q3 -26 16 -53t32.5 -52.5t43 -45t46.5 -28.5q32 19 62.5 49.5t54.5 66.5t38.5 74t14.5 72
q0 28 -13 56t-32.5 51.5t-43.5 39.5t-45 19zM1055 600q0 -200 -96 -344h9q57 0 108 10.5t89.5 28.5t61 43t22.5 55q0 24 -16.5 51.5t-43.5 55t-62 53.5t-72 47z" />
    <glyph glyph-name="uni06C0" unicode="&#x6c0;" horiz-adv-x="993" arabic-form="isolated" 
d="M485 -60q-81 0 -163.5 28t-150 80.5t-110 128t-42.5 170.5q0 200 177 415q14 17 23.5 28t17.5 20t15 16l18 18l-61 52l199 243q51 -38 121.5 -102.5t164.5 -164.5q259 -295 259 -525q0 -100 -41 -176t-107 -127.5t-150 -77.5t-170 -26zM679 347q0 31 -20 70t-52.5 81.5
t-72.5 86t-80 83.5q-27 -30 -57 -67.5t-55 -79.5t-41 -86.5t-14 -87.5q1 -24 23 -42t52.5 -29t64.5 -16.5t58 -5.5q30 0 64.5 4.5t63 15.5t47.5 29t19 44zM540 1620q-26 4 -46.5 8t-39 6.5t-36 1t-36.5 -8.5q-20 -8 -36 -21t-26.5 -31t-12.5 -39.5t7 -46.5q6 -18 21.5 -29.5
t33.5 -18.5t37 -8t33 2t23.5 6t26.5 10.5t48 23.5t89 46l76 -102l-257 -150l-240 -133l-62 113l166 93q-34 20 -60.5 50t-41.5 65q-17 42 -14.5 85t20.5 82t49 70.5t72 49.5q25 11 51 15.5t53 4.5q13 0 25.5 -1t28 -3.5t36 -7t49.5 -11.5z" />
    <glyph glyph-name="uni06C1" unicode="&#x6c1;" horiz-adv-x="983" arabic-form="isolated" 
d="M485 -60q-81 0 -163.5 28t-150 80.5t-110 128t-42.5 170.5q0 200 177 415q14 17 23.5 28t17.5 20t15 16l18 18l-61 52l199 243q51 -38 121.5 -102.5t164.5 -164.5q259 -295 259 -525q0 -100 -41 -176t-107 -127.5t-150 -77.5t-170 -26zM679 347q0 31 -20 70t-52.5 81.5
t-72.5 86t-80 83.5q-27 -30 -57 -67.5t-55 -79.5t-41 -86.5t-14 -87.5q1 -24 23 -42t52.5 -29t64.5 -16.5t58 -5.5q30 0 64.5 4.5t63 15.5t47.5 29t19 44z" />
    <glyph glyph-name="uni06C2.fina" unicode="&#x6c2;" horiz-adv-x="1347" 
d="M1367 256v-316h-40q-69 0 -127 21t-107.5 55.5t-92 78.5t-81 90t-74 90t-71 78.5t-72 55.5t-76.5 21q-59 0 -99.5 -29.5t-71 -82t-54.5 -124.5t-49 -156l-304 78q34 132 81 244.5t115 194.5t161.5 128.5t220.5 46.5q82 0 150.5 -25.5t126.5 -66.5t107.5 -93t94.5 -105
q37 -44 66.5 -78t55 -57.5t49 -36t48.5 -12.5h43zM493 1119q-26 4 -46.5 8t-39 6.5t-36 1t-36.5 -8.5q-20 -8 -36 -21t-26.5 -31t-12.5 -39.5t7 -46.5q6 -18 21.5 -29.5t33.5 -18.5t37 -8t33 2t23.5 6t26.5 10.5t48 23.5t89 46l76 -102l-257 -150l-240 -133l-62 113l166 93
q-34 20 -60.5 50t-41.5 65q-17 42 -14.5 85t20.5 82t49 70.5t72 49.5q25 11 51 15.5t53 4.5q13 0 25.5 -1t28 -3.5t36 -7t49.5 -11.5z" />
    <glyph glyph-name="uni06C3.fina" unicode="&#x6c3;" horiz-adv-x="1347" 
d="M1367 256v-316h-40q-69 0 -127 21t-107.5 55.5t-92 78.5t-81 90t-74 90t-71 78.5t-72 55.5t-76.5 21q-59 0 -99.5 -29.5t-71 -82t-54.5 -124.5t-49 -156l-304 78q34 132 81 244.5t115 194.5t161.5 128.5t220.5 46.5q82 0 150.5 -25.5t126.5 -66.5t107.5 -93t94.5 -105
q37 -44 66.5 -78t55 -57.5t49 -36t48.5 -12.5h43zM593 990l-188 -188l-194 193l192 193l190 -190l188 188l194 -193l-192 -193z" />
    <glyph glyph-name="uni06CC" unicode="&#x6cc;" horiz-adv-x="1774" arabic-form="isolated" 
d="M813 226q5 85 31 168.5t70 159t103.5 139.5t132 111t156 73.5t174.5 26.5q67 0 138.5 -19.5t143.5 -57.5l-111 -293q-48 21 -91 32.5t-81 11.5q-62 0 -127.5 -27t-122 -72.5t-96 -105.5t-49.5 -126q-2 -28 16 -46t48 -31t68 -22.5t77 -19.5q74 -20 143.5 -41t123 -55.5
t86 -89.5t32.5 -144q0 -106 -40.5 -188.5t-109.5 -145t-159.5 -105.5t-189.5 -70.5t-201 -39.5t-193 -12q-168 0 -309.5 43.5t-243.5 128t-159.5 209.5t-57.5 288q0 26 2 52t4 49q6 109 28.5 209t48 178t47 127t24.5 56l251 -105q-28 -66 -52.5 -132t-42.5 -134.5
t-28.5 -138.5t-10.5 -143q0 -105 42 -174.5t111.5 -111t159.5 -59t186 -17.5q127 0 237.5 17.5t194.5 46t135.5 66t59.5 76.5q-63 15 -133.5 30t-139 36.5t-130 52.5t-107 76.5t-70.5 110t-19 152.5z" />
    <glyph glyph-name="uni06D2" unicode="&#x6d2;" horiz-adv-x="1298" arabic-form="isolated" 
d="M775 256v-316h-346q-52 0 -81 -16t-29 -43q0 -5 4 -12t12 -14t21 -11.5t31 -4.5h911v-314h-892q-101 0 -173.5 26.5t-119 71.5t-69 103.5t-22.5 122.5q0 72 29.5 145t85 131t135.5 94.5t181 36.5h322z" />
    <glyph glyph-name="uni06D3" unicode="&#x6d3;" horiz-adv-x="1298" arabic-form="isolated" 
d="M775 256v-316h-346q-52 0 -81 -16t-29 -43q0 -5 4 -12t12 -14t21 -11.5t31 -4.5h911v-314h-892q-101 0 -173.5 26.5t-119 71.5t-69 103.5t-22.5 122.5q0 72 29.5 145t85 131t135.5 94.5t181 36.5h322zM488 728q-26 4 -46.5 8t-39 6.5t-36 1t-36.5 -8.5q-20 -8 -36 -21
t-26.5 -31t-12.5 -39.5t7 -46.5q6 -18 21.5 -29.5t33.5 -18.5t37 -8t33 2t23.5 6t26.5 10.5t48 23.5t89 46l76 -102l-257 -150l-240 -133l-62 113l166 93q-34 20 -60.5 50t-41.5 65q-17 42 -14.5 85t20.5 82t49 70.5t72 49.5q25 11 51 15.5t53 4.5q13 0 25.5 -1t28 -3.5
t36 -7t49.5 -11.5z" />
    <glyph glyph-name="uni0671.fina" unicode="&#x671;" horiz-adv-x="640" arabic-form="final" 
d="M632 -60q-125 0 -212 33.5t-142 92.5t-79.5 139.5t-24.5 174.5q0 48 2 119.5t2 165.5q0 72 -0.5 157t-3 173t-6.5 175t-11 164l299 89q6 -65 10.5 -137.5t7 -145.5t4 -144t2.5 -134q1 -75 -2.5 -157.5t-5.5 -158t1.5 -136.5t18.5 -93q9 -23 22.5 -35t31.5 -18t39.5 -7
t47.5 -1h27v-316h-28zM572 1770q-2 19 -13.5 29t-27 13.5t-31.5 3t-26 -1.5q-27 -4 -50 -16t-43 -29t-36.5 -37.5t-31.5 -41.5q20 -6 47.5 -9t57 -1t58 8t50.5 17t35 27t11 38zM664 1772q-2 -58 -26.5 -95t-59.5 -59t-73.5 -31t-66.5 -11q-83 -7 -134 5t-84 29t-55.5 32
t-48.5 14q-12 0 -25 -5.5t-26 -14t-25.5 -18t-22.5 -18.5l-35 103q30 21 60.5 39t67.5 20q33 2 57 -6.5t47 -24.5q24 40 53.5 76.5t64 64t74.5 43.5t87 16q34 0 65 -12.5t54 -34t37 -50.5t15 -62z" />
    <glyph glyph-name="uni067E.fina" unicode="&#x67e;" horiz-adv-x="2316" arabic-form="final" 
d="M2300 -60q-83 0 -151 13t-124.5 41t-101.5 72.5t-81 107.5q-142 -121 -343.5 -179t-470.5 -58q-350 0 -578 77.5t-326 241.5q-32 53 -46 122t-8.5 151t32 173.5t76.5 189.5l238 -138q-20 -39 -38 -84.5t-27.5 -91t-9 -88t18.5 -75.5q30 -56 95.5 -88t155 -48t196.5 -19.5
t221 -3.5q105 0 199 7.5t173.5 24t144 43t110.5 64.5q42 34 69 75t46 86.5t31.5 95.5t24.5 101l280 -71l-41 -212q-9 -46 2 -85t41 -67.5t78.5 -45t113.5 -16.5h36v-316h-36v0zM1005 -389l188 188l194 -193l-192 -193l-190 190l-188 -188l-194 193l192 193zM826 -681
l178 178l179 -179l-178 -178z" />
    <glyph glyph-name="uni067E.init" unicode="&#x67e;" horiz-adv-x="843" arabic-form="initial" 
d="M-20 256h240q43 0 95 4.5t97.5 18.5t76 41.5t30.5 72.5q0 24 -14.5 71.5t-38 106t-53 122.5t-58.5 122l286 142q28 -63 55.5 -134t49.5 -144t35.5 -145.5t13.5 -138.5q0 -124 -45.5 -210.5t-123.5 -141t-183 -79t-225 -24.5h-238v316zM383 -389l188 188l194 -193
l-192 -193l-190 190l-188 -188l-194 193l192 193zM204 -681l178 178l179 -179l-178 -178z" />
    <glyph glyph-name="uni067E.medi" unicode="&#x67e;" horiz-adv-x="852" arabic-form="medial" 
d="M872 256v-316h-23q-48 0 -94.5 8t-87.5 22.5t-75.5 34.5t-59.5 43q-47 -36 -107.5 -57t-128 -32.5t-139 -15t-140.5 -3.5h-37v316h37q72 0 128.5 4t99 14t71.5 26.5t47 41.5q23 32 28.5 71t1 80.5t-15.5 83t-20 79.5l291 83q12 -45 20.5 -82t15 -72t11.5 -71t11 -78
q4 -27 10.5 -58.5t21.5 -58.5t41.5 -45t69.5 -18h23zM383 -389l188 188l194 -193l-192 -193l-190 190l-188 -188l-194 193l192 193zM204 -681l178 178l179 -179l-178 -178z" />
    <glyph glyph-name="uni0679.fina" unicode="&#x679;" horiz-adv-x="2316" arabic-form="final" 
d="M2300 -60q-83 0 -151 13t-124.5 41t-101.5 72.5t-81 107.5q-142 -121 -343.5 -179t-470.5 -58q-350 0 -578 77.5t-326 241.5q-32 53 -46 122t-8.5 151t32 173.5t76.5 189.5l238 -138q-20 -39 -38 -84.5t-27.5 -91t-9 -88t18.5 -75.5q30 -56 95.5 -88t155 -48t196.5 -19.5
t221 -3.5q105 0 199 7.5t173.5 24t144 43t110.5 64.5q42 34 69 75t46 86.5t31.5 95.5t24.5 101l280 -71l-41 -212q-9 -46 2 -85t41 -67.5t78.5 -45t113.5 -16.5h36v-316h-36v0zM1108 812q-44 0 -85.5 3.5t-84 12t-86.5 21.5t-92 32l43 107q35 -14 62 -23t51 -15
q12 15 25 33.5t32 54.5q4 16 4.5 43t-1 58.5t-4.5 65t-5 62.5q-2 23 -4 45.5t-5 48.5t-7 56.5t-9 68.5l116 32q8 -93 19 -184t12 -188q91 79 180 94q34 5 70.5 -3t68 -27.5t53.5 -49.5t25 -69q4 -53 -13.5 -94t-49 -72t-73.5 -52.5t-85.5 -35t-84.5 -19.5t-72 -6zM1025 929
q23 -1 38 -1h29q26 0 62 3t74 11.5t74.5 23.5t63.5 39q14 14 22.5 31.5t8.5 31.5q0 28 -30 45.5t-80 12.5q-29 -3 -63.5 -20.5t-70 -44.5t-68.5 -61.5t-60 -70.5z" />
    <glyph glyph-name="uni0679.init" unicode="&#x679;" horiz-adv-x="843" arabic-form="initial" 
d="M-20 256h240q43 0 95 4.5t97.5 18.5t76 41.5t30.5 72.5q0 24 -14.5 71.5t-38 106t-53 122.5t-58.5 122l286 142q28 -63 55.5 -134t49.5 -144t35.5 -145.5t13.5 -138.5q0 -124 -45.5 -210.5t-123.5 -141t-183 -79t-225 -24.5h-238v316zM403 1104q-44 0 -85.5 3.5t-84 12
t-86.5 21.5t-92 32l43 107q35 -14 62 -23t51 -15q12 15 25 33.5t32 54.5q4 16 4.5 43t-1 58.5t-4.5 65t-5 62.5q-2 23 -4 45.5t-5 48.5t-7 56.5t-9 68.5l116 32q8 -93 19 -184t12 -188q91 79 180 94q34 5 70.5 -3t68 -27.5t53.5 -49.5t25 -69q4 -53 -13.5 -94t-49 -72
t-73.5 -52.5t-85.5 -35t-84.5 -19.5t-72 -6zM320 1221q23 -1 38 -1h29q26 0 62 3t74 11.5t74.5 23.5t63.5 39q14 14 22.5 31.5t8.5 31.5q0 28 -30 45.5t-80 12.5q-29 -3 -63.5 -20.5t-70 -44.5t-68.5 -61.5t-60 -70.5z" />
    <glyph glyph-name="uni0679.medi" unicode="&#x679;" horiz-adv-x="852" arabic-form="medial" 
d="M872 256v-316h-23q-48 0 -94.5 8t-87.5 22.5t-75.5 34.5t-59.5 43q-47 -36 -107.5 -57t-128 -32.5t-139 -15t-140.5 -3.5h-37v316h37q72 0 128.5 4t99 14t71.5 26.5t47 41.5q23 32 28.5 71t1 80.5t-15.5 83t-20 79.5l291 83q12 -45 20.5 -82t15 -72t11.5 -71t11 -78
q4 -27 10.5 -58.5t21.5 -58.5t41.5 -45t69.5 -18h23zM403 947q-44 0 -85.5 3.5t-84 12t-86.5 21.5t-92 32l43 107q35 -14 62 -23t51 -15q12 15 25 33.5t32 54.5q4 16 4.5 43t-1 58.5t-4.5 65t-5 62.5q-2 23 -4 45.5t-5 48.5t-7 56.5t-9 68.5l116 32q8 -93 19 -184t12 -188
q91 79 180 94q34 5 70.5 -3t68 -27.5t53.5 -49.5t25 -69q4 -53 -13.5 -94t-49 -72t-73.5 -52.5t-85.5 -35t-84.5 -19.5t-72 -6zM320 1064q23 -1 38 -1h29q26 0 62 3t74 11.5t74.5 23.5t63.5 39q14 14 22.5 31.5t8.5 31.5q0 28 -30 45.5t-80 12.5q-29 -3 -63.5 -20.5
t-70 -44.5t-68.5 -61.5t-60 -70.5z" />
    <glyph glyph-name="veh.isol" unicode="&#x6a4;" horiz-adv-x="1985" arabic-form="isolated" 
d="M1056 256q38 0 90 0.5t111.5 3t121.5 7.5t118.5 15t103.5 25t77 37q-131 -13 -240.5 -7t-189 42t-124 107.5t-45.5 191.5q0 55 11 113.5t33.5 115t55.5 107t76.5 88.5t97 60.5t116.5 22.5q79 0 144.5 -30t118 -81.5t92 -119.5t65.5 -143t39 -153t13 -150
q0 -120 -33.5 -209t-93.5 -152t-142.5 -103.5t-181 -63.5t-208.5 -31.5t-225 -8.5q-121 0 -244 8t-237 29.5t-213 59.5t-172.5 99t-115.5 148t-42 206q0 59 13 114.5t34.5 108.5t49 104.5t56.5 103.5l235 -197q-15 -21 -35 -54.5t-38.5 -70.5t-31 -74.5t-12.5 -65.5
q0 -48 59.5 -85.5t161.5 -64t239 -40t292 -13.5zM1467 867q-23 1 -47.5 -13.5t-44.5 -38.5t-33.5 -55t-13.5 -63q0 -30 18.5 -49t47.5 -30t65.5 -15.5t72 -5t66.5 1t50 3.5q-9 45 -23.5 91t-36.5 84t-52 63t-69 27zM1485 1478l-188 -188l-194 193l192 193l190 -190l188 188
l194 -193l-192 -193zM1664 1770l-178 -178l-179 179l178 178z" />
    <glyph glyph-name="veh.fina" unicode="&#x6a4;" horiz-adv-x="2106" arabic-form="final" 
d="M963 -60q-89 0 -192.5 7.5t-206.5 29t-199.5 59.5t-171.5 99t-123 148t-54 207q0 59 13 114.5t34.5 108.5t49 104.5t56.5 103.5l235 -197q-15 -21 -35 -54.5t-38.5 -70.5t-31 -74.5t-12.5 -65.5q0 -37 26.5 -66.5t74 -52t112 -38.5t140 -26t159 -15t169.5 -5q39 0 84 0.5
t85 1.5t70.5 2t41.5 2q-36 40 -65 99t-33 134q-2 59 12.5 119.5t42.5 117.5t68 106.5t89 86t105.5 56t117.5 17.5q87 -4 162 -45t129.5 -106t86 -147.5t31.5 -169.5q0 -69 -23 -135.5t-58 -126.5q48 -5 93.5 -8.5t85.5 -3.5h33v-316h-28q-62 0 -127.5 2t-130.5 10.5
t-129 24.5t-124 44q-24 -14 -66 -25.5t-95.5 -20.5t-114 -15.5t-122 -11t-120 -6.5t-106.5 -2zM1730 507q0 32 -15.5 61t-38 52t-48.5 38.5t-47 21.5q-23 -5 -52.5 -18t-56 -36.5t-44.5 -57t-18 -79.5q0 -15 15.5 -41.5t40 -54t56 -51t64.5 -33.5q25 14 51 38.5t46.5 52
t33.5 56t13 51.5zM1620 1294l-188 -188l-194 193l192 193l190 -190l188 188l194 -193l-192 -193zM1799 1586l-178 -178l-179 179l178 178z" />
    <glyph glyph-name="veh.init" unicode="&#x6a4;" horiz-adv-x="943" arabic-form="initial" 
d="M15 256q37 0 89.5 0.5t112 3t121.5 7.5t118.5 15t103.5 25t77 37q-131 -13 -240.5 -7t-189 42t-124 107.5t-45.5 191.5q0 55 11 113.5t33.5 115t55.5 107t76.5 88.5t97 60.5t116.5 22.5q79 0 144.5 -30t118 -81.5t92 -119.5t65.5 -143t39 -153t13 -150q0 -120 -33.5 -209
t-93.5 -152t-142.5 -103.5t-181 -63.5t-208.5 -31.5t-225 -8.5h-36v316h35zM426 867q-23 1 -47.5 -13.5t-44.5 -38.5t-33.5 -55t-13.5 -63q0 -30 18.5 -49t47.5 -30t65.5 -15.5t72 -5t66.5 1t50 3.5q-9 45 -23.5 91t-36.5 84t-52 63t-69 27zM426 1484l-188 -188l-194 193
l192 193l190 -190l188 188l194 -193l-192 -193zM605 1776l-178 -178l-179 179l178 178z" />
    <glyph glyph-name="veh.medi" unicode="&#x6a4;" horiz-adv-x="1001" arabic-form="medial" 
d="M-20 256h72q23 0 47 1.5t45 4t32 7.5q-18 20 -35 43.5t-30.5 51.5t-22.5 60.5t-11 70.5q-2 59 12.5 119.5t42.5 117.5t68 106.5t89 86t105.5 56t117.5 17.5q87 -4 162 -45t129.5 -106t86 -147.5t31.5 -169.5q0 -69 -23 -135.5t-58 -126.5q26 -6 64 -9t97 -3h20v-316h-39
q-65 0 -123.5 3.5t-115 12.5t-113 24.5t-117.5 40.5q-37 -21 -92.5 -36.5t-121.5 -25t-138 -14.5t-142 -5h-39v316zM656 507q0 32 -15.5 61t-38 52t-48.5 38.5t-47 21.5q-23 -5 -52.5 -18t-56 -36.5t-44.5 -57t-18 -79.5q0 -15 15.5 -41.5t40 -54t56 -51t64.5 -33.5
q25 14 51 38.5t46.5 52t33.5 56t13 51.5zM502 1294l-188 -188l-194 193l192 193l190 -190l188 188l194 -193l-192 -193zM681 1586l-178 -178l-179 179l178 178z" />
    <glyph glyph-name="uni0686.fina" unicode="&#x686;" horiz-adv-x="1702" arabic-form="final" 
d="M1569 -595q-80 -57 -165 -103.5t-175.5 -79.5t-187 -51t-198.5 -18q-167 0 -312 46t-252.5 134t-169.5 215.5t-62 291.5v24q0 12 1 24q9 104 60 196t132.5 170.5t188 142t227 110t249 75.5t253.5 38q-53 29 -120.5 62.5t-139 62.5t-140 48.5t-123.5 19.5
q-36 0 -78.5 -14.5t-83 -39.5t-75 -59t-55.5 -73l-225 153q44 77 99 141.5t119.5 111t139.5 72t159 25.5q63 0 127 -15.5t126.5 -41t122 -58.5t114.5 -69q82 -53 149.5 -92.5t128 -68t119.5 -48t124 -32.5l-93 -315l-170 -23q13 -36 49.5 -58t82.5 -34t95.5 -15.5t89.5 -3.5
h22v-316h-22q-122 0 -214 20.5t-159.5 54t-113 75.5t-74 85t-43 83t-19.5 69q-84 -16 -172 -40t-171.5 -56.5t-157 -72t-129.5 -86.5t-89 -101t-35 -114q-3 -101 45.5 -173t128.5 -118t181 -67.5t203 -21.5q67 0 138 11t141 31.5t137.5 50.5t127.5 68l144 -233v0z
M856 -50.9141l170.283 170.077l175.718 -174.601l-173.906 -174.6l-172.095 171.886l-170.283 -170.076l-175.718 174.6l173.906 174.6zM693.869 -315.075l161.225 161.029l162.132 -161.935l-161.226 -161.029z" />
    <glyph glyph-name="uni0686.init" unicode="&#x686;" horiz-adv-x="1587" arabic-form="initial" 
d="M-20 256h211q162 0 297.5 19.5t253.5 52.5t223.5 76.5t207.5 90.5q-68 19 -136.5 47t-137 54t-136.5 44.5t-135 18.5q-46 0 -90.5 -25t-80.5 -57t-60 -62.5t-30 -41.5l-231 149q38 67 90 131t114.5 113.5t135 79.5t152.5 30q59 0 118 -12.5t117.5 -32.5t115.5 -45.5
t113 -51.5q53 -25 107 -49.5t111 -45t118 -33.5t129 -14l-25 -307l-142 -68q-87 -42 -173 -86.5t-175 -86t-184 -79t-199 -65t-220 -44t-248 -16.5h-211v316zM807 -389l188 188l194 -193l-192 -193l-190 190l-188 -188l-194 193l192 193zM628 -681l178 178l179 -179
l-178 -178z" />
    <glyph glyph-name="uni0686.medi" unicode="&#x686;" horiz-adv-x="1667" arabic-form="medial" 
d="M-20 256h203q73 0 154.5 10t166.5 27t171 40.5t167.5 50.5t156 57t137.5 60q-62 15 -138 42t-154 53t-151.5 44.5t-131.5 17.5q-37 -1 -71.5 -15.5t-64 -36t-53 -46t-40.5 -46t-27 -36.5l-9 -14l-237 136q40 74 96 142.5t122 121t138.5 83.5t145.5 30q54 -1 107.5 -13
t107.5 -30.5t109 -43t111 -50.5q57 -28 126.5 -55t145 -48t154 -34t153.5 -13l-52 -295q-23 -10 -51.5 -23.5t-50.5 -24.5l-26 -13q23 -27 58.5 -43t73 -23.5t71.5 -9.5t55 -2h34v-316h-34q-96 0 -180.5 17t-154 49.5t-123.5 79t-89 105.5q-99 -48 -206 -93t-222 -80.5
t-238.5 -56.5t-256.5 -21h-203v316zM739 -387l188 188l194 -193l-192 -193l-190 190l-188 -188l-194 193l192 193zM560 -679l178 178l179 -179l-178 -178z" />
    <glyph glyph-name="uni0688.fina" unicode="&#x688;" horiz-adv-x="1262" arabic-form="final" 
d="M534 -60q-131 0 -256.5 50t-232.5 161l181 255q49 -45 95 -73.5t88 -44.5t79.5 -22t70.5 -6q27 0 58 3.5t61.5 11.5t57.5 20t47 30q-38 92 -82.5 191.5t-89.5 200t-89 199.5t-82 190l292 122l330 -797q18 -44 33 -77t35.5 -55t49 -32.5t73.5 -10.5h29v-316h-29
q-61 0 -107.5 8t-83 22.5t-65 35t-53.5 45.5q-46 -31 -92 -52.5t-96 -34.5t-104.5 -18.5t-117.5 -5.5zM677 1318q-44 0 -85.5 3.5t-84 12t-86.5 21.5t-92 32l43 107q35 -14 62 -23t51 -15q12 15 25 33.5t32 54.5q4 16 4.5 43t-1 58.5t-4.5 65t-5 62.5q-2 23 -4 45.5t-5 48.5
t-7 56.5t-9 68.5l116 32q8 -93 19 -184t12 -188q91 79 180 94q34 5 70.5 -3t68 -27.5t53.5 -49.5t25 -69q4 -53 -13.5 -94t-49 -72t-73.5 -52.5t-85.5 -35t-84.5 -19.5t-72 -6zM594 1435q23 -1 38 -1h29q26 0 62 3t74 11.5t74.5 23.5t63.5 39q14 14 22.5 31.5t8.5 31.5
q0 28 -30 45.5t-80 12.5q-29 -3 -63.5 -20.5t-70 -44.5t-68.5 -61.5t-60 -70.5z" />
    <glyph glyph-name="uni0698.fina" unicode="&#x698;" horiz-adv-x="813" arabic-form="final" 
d="M816 -60q-22 0 -58 3t-82 22q-22 -124 -82.5 -235.5t-149.5 -209t-203 -179.5t-243 -147l-183 253q71 36 143 78.5t137.5 90t122 99t98.5 106.5t66 112.5t24 116.5q0 39 -15 99t-38 129t-51 139t-54 128l289 126q40 -120 76.5 -200t70.5 -128t65.5 -67.5t62.5 -19.5h24
v-316h-20zM397 1012l-188 -188l-194 193l192 193l190 -190l188 188l194 -193l-192 -193zM576 1304l-178 -178l-179 179l178 178z" />
    <glyph glyph-name="uni0691.fina" unicode="&#x691;" horiz-adv-x="813" arabic-form="final" 
d="M816 -60q-22 0 -58 3t-82 22q-22 -124 -82.5 -235.5t-149.5 -209t-203 -179.5t-243 -147l-183 253q71 36 143 78.5t137.5 90t122 99t98.5 106.5t66 112.5t24 116.5q0 39 -15 99t-38 129t-51 139t-54 128l289 126q40 -120 76.5 -200t70.5 -128t65.5 -67.5t62.5 -19.5h24
v-316h-20zM398 826q-44 0 -85.5 3.5t-84 12t-86.5 21.5t-92 32l43 107q35 -14 62 -23t51 -15q12 15 25 33.5t32 54.5q4 16 4.5 43t-1 58.5t-4.5 65t-5 62.5q-2 23 -4 45.5t-5 48.5t-7 56.5t-9 68.5l116 32q8 -93 19 -184t12 -188q91 79 180 94q34 5 70.5 -3t68 -27.5
t53.5 -49.5t25 -69q4 -53 -13.5 -94t-49 -72t-73.5 -52.5t-85.5 -35t-84.5 -19.5t-72 -6zM315 943q23 -1 38 -1h29q26 0 62 3t74 11.5t74.5 23.5t63.5 39q14 14 22.5 31.5t8.5 31.5q0 28 -30 45.5t-80 12.5q-29 -3 -63.5 -20.5t-70 -44.5t-68.5 -61.5t-60 -70.5z" />
    <glyph glyph-name="uni06A9.fina" unicode="&#x6a9;" horiz-adv-x="2320" arabic-form="final" 
d="M2340 -60h-43q-160 0 -281 53.5t-221 159.5q-29 -53 -84 -89.5t-125.5 -60t-152.5 -36.5t-165.5 -19t-163.5 -7t-147 -1q-110 3 -221.5 9t-214.5 24t-193 52.5t-156.5 94.5t-105 150.5t-38.5 219.5q0 43 9 93t25.5 99.5t39 95t50.5 80.5l236 -172q-13 -21 -28.5 -47
t-29.5 -55t-23.5 -59t-9.5 -57q0 -42 34 -74t91 -55.5t132.5 -39t159.5 -25t170.5 -13.5t166.5 -4q58 0 126 2.5t137 10t133.5 21.5t114.5 37t80 57t30 81q0 46 -26.5 97t-70 103.5t-98.5 105t-111.5 100t-109 88.5t-91.5 71l32 273l923 387l112 -278l-767 -311
q72 -57 138 -115t124 -120t107 -130t87 -146q29 -59 63.5 -118.5t79 -107.5t101.5 -78.5t132 -30.5h43v-316z" />
    <glyph glyph-name="uni06A9.init" unicode="&#x6a9;" horiz-adv-x="1021" arabic-form="initial" 
d="M-20 256h95q58 0 119 1t117 8.5t102.5 23.5t76 46t38.5 77t-11 116q-7 25 -30 60.5t-57.5 78t-79.5 89.5t-96 96.5t-107 99t-112 95.5l31 272l840 374l121 -268l-664 -308q49 -34 101 -81t101 -102.5t92 -117.5t75 -127t50.5 -131t17.5 -129q-1 -104 -39 -193.5
t-105 -155t-159.5 -103t-203.5 -37.5h-313v316z" />
    <glyph glyph-name="uni06A9.medi" unicode="&#x6a9;" horiz-adv-x="1188" arabic-form="medial" 
d="M-20 256h327q51 0 95 12t77 31.5t53 44t23 49.5q5 50 -15 108t-57 118.5t-87 121t-104 115.5t-107.5 102t-98.5 81l27 275l919 385l116 -275l-759 -310q69 -64 124.5 -124.5t102 -121t85 -121t72.5 -124.5q30 -56 63 -118.5t76.5 -116t100.5 -90.5t133 -42h62v-316h-31
q-70 0 -133 9.5t-120 31t-108.5 56t-98.5 84.5q-36 -48 -83 -82t-99.5 -56t-108.5 -32t-110 -11h-336v316z" />
    <glyph glyph-name="uni06AF.fina" unicode="&#x6af;" horiz-adv-x="2320" arabic-form="final" 
d="M2340 -60h-43q-160 0 -281 53.5t-221 159.5q-29 -53 -84 -89.5t-125.5 -60t-152.5 -36.5t-165.5 -19t-163.5 -7t-147 -1q-110 3 -221.5 9t-214.5 24t-193 52.5t-156.5 94.5t-105 150.5t-38.5 219.5q0 43 9 93t25.5 99.5t39 95t50.5 80.5l236 -172q-13 -21 -28.5 -47
t-29.5 -55t-23.5 -59t-9.5 -57q0 -42 34 -74t91 -55.5t132.5 -39t159.5 -25t170.5 -13.5t166.5 -4q58 0 126 2.5t137 10t133.5 21.5t114.5 37t80 57t30 81q0 46 -26.5 97t-70 103.5t-98.5 105t-111.5 100t-109 88.5t-91.5 71l32 273l923 387l112 -278l-767 -311
q72 -57 138 -115t124 -120t107 -130t87 -146q29 -59 63.5 -118.5t79 -107.5t101.5 -78.5t132 -30.5h43v-316zM1217 1586l765 319l55 -119l-828 -350z" />
    <glyph glyph-name="uni06AF.init" unicode="&#x6af;" horiz-adv-x="1022" arabic-form="initial" 
d="M-20 256h95q58 0 119 1t117 8.5t102.5 23.5t76 46t38.5 77t-11 116q-7 25 -30 60.5t-57.5 78t-79.5 89.5t-96 96.5t-107 99t-112 95.5l31 272l840 374l121 -268l-664 -308q49 -34 101 -81t101 -102.5t92 -117.5t75 -127t50.5 -131t17.5 -129q-1 -104 -39 -193.5
t-105 -155t-159.5 -103t-203.5 -37.5h-313v316zM52 1586l765 319l55 -119l-828 -350z" />
    <glyph glyph-name="uni06AF.medi" unicode="&#x6af;" horiz-adv-x="1188" arabic-form="medial" 
d="M-20 256h327q51 0 95 12t77 31.5t53 44t23 49.5q5 50 -15 108t-57 118.5t-87 121t-104 115.5t-107.5 102t-98.5 81l27 275l919 385l116 -275l-759 -310q69 -64 124.5 -124.5t102 -121t85 -121t72.5 -124.5q30 -56 63 -118.5t76.5 -116t100.5 -90.5t133 -42h62v-316h-31
q-70 0 -133 9.5t-120 31t-108.5 56t-98.5 84.5q-36 -48 -83 -82t-99.5 -56t-108.5 -32t-110 -11h-336v316zM139 1586l765 319l55 -119l-828 -350z" />
    <glyph glyph-name="uni06BA.fina" unicode="&#x6ba;" horiz-adv-x="1709" arabic-form="final" 
d="M1697 -60q-23 0 -41.5 2t-36.5 5.5t-36.5 9t-40.5 12.5q0 -170 -62 -303.5t-169 -225t-251 -139.5t-310 -48q-167 0 -303 47t-232 136t-148 217.5t-52 290.5q0 86 12 163.5t37 155.5t62.5 160t88.5 177l225 -162q-29 -52 -56 -116.5t-47.5 -133t-33 -136.5t-12.5 -127
q0 -78 38 -143t100.5 -111.5t142.5 -73t165 -27.5q117 -2 214 18.5t167 65.5t108.5 116t38.5 171q0 58 -17 123.5t-44.5 136t-64 145t-75.5 152.5l273 173l101 -195q41 -83 76 -127.5t66.5 -65t60 -24t56.5 -3.5h32v-316h-32z" />
    <glyph glyph-name="uni06C0.fina" unicode="&#x6c0;" horiz-adv-x="1090" arabic-form="final" 
d="M544 80q-98 0 -184 20t-150 62t-101 107t-37 156q0 69 25.5 130.5t67 115t94 98t106 79.5t103 59t86.5 37q-1 12 -2 24.5t-2 30.5t-3 42t-5 59l312 67q21 -188 40 -343t33.5 -267t24 -176t11.5 -68q15 -32 44.5 -44.5t80.5 -12.5h22v-316h-29q-42 0 -97 7.5t-115 35.5
q-42 20 -73.5 45.5t-60.5 64.5q-51 -7 -98.5 -10t-92.5 -3zM538 394q21 0 43.5 1.5t43.5 3.5q-3 17 -5.5 37.5t-6 50t-8.5 70.5t-11 100q-38 -19 -85 -45.5t-88.5 -56t-69.5 -60t-28 -56.5q0 -13 22.5 -21.5t55.5 -14t70 -7.5t67 -2zM676 1600q-26 4 -46.5 8t-39 6.5t-36 1
t-36.5 -8.5q-20 -8 -36 -21t-26.5 -31t-12.5 -39.5t7 -46.5q6 -18 21.5 -29.5t33.5 -18.5t37 -8t33 2t23.5 6t26.5 10.5t48 23.5t89 46l76 -102l-257 -150l-240 -133l-62 113l166 93q-34 20 -60.5 50t-41.5 65q-17 42 -14.5 85t20.5 82t49 70.5t72 49.5q25 11 51 15.5
t53 4.5q13 0 25.5 -1t28 -3.5t36 -7t49.5 -11.5z" />
    <glyph glyph-name="uni06C1.fina" unicode="&#x6c1;" horiz-adv-x="1347" arabic-form="final" 
d="M1367 256v-316h-40q-69 0 -127 21t-107.5 55.5t-92 78.5t-81 90t-74 90t-71 78.5t-72 55.5t-76.5 21q-59 0 -99.5 -29.5t-71 -82t-54.5 -124.5t-49 -156l-304 78q34 132 81 244.5t115 194.5t161.5 128.5t220.5 46.5q82 0 150.5 -25.5t126.5 -66.5t107.5 -93t94.5 -105
q37 -44 66.5 -78t55 -57.5t49 -36t48.5 -12.5h43z" />
    <glyph glyph-name="uni06C1.init" unicode="&#x6c1;" horiz-adv-x="728" arabic-form="initial" 
d="M459 -467q-30 3 -54 15.5t-41 31.5t-26 43.5t-9 51.5q0 41 13 83t37 88t57.5 96t74.5 107q12 -8 21 -13.5t17.5 -10t17 -9.5t19.5 -11q-92 -143 -92 -222q0 -29 27 -52.5t90 -47.5q-20 -31 -42 -58.5t-43 -47.5t-38.5 -32t-27.5 -12h-1zM-20 256h33q42 0 92.5 7t94 22.5
t73 42t29.5 65.5q0 24 -14 71.5t-37 106t-52 122.5t-58 122l286 142q28 -63 55.5 -134t49.5 -144t35.5 -145.5t13.5 -138.5q0 -120 -40 -206t-112 -141.5t-172 -81.5t-220 -26h-57v316z" />
    <glyph glyph-name="uni06C1.medi" unicode="&#x6c1;" horiz-adv-x="1011" arabic-form="medial" 
d="M895 -596q-29 3 -51 14.5t-37.5 29.5t-23.5 40.5t-8 46.5q0 44 9.5 85.5t28 83.5t46 85.5t63.5 91.5l74 -45q-76 -103 -76 -192q0 -37 25.5 -60.5t85.5 -42.5q-12 -29 -31.5 -53.5t-40 -42.5t-38 -29t-26.5 -12zM443 325q-24 -60 -35 -120.5t-11 -100.5q0 -33 6.5 -86
t21 -110.5t36.5 -112t53 -91.5q-17 103 -3.5 195t59 164.5t123.5 121t190 65.5q25 4 52 5t48 1h48v-316h-47q-62 0 -108.5 -22t-79.5 -58.5t-53 -84t-29 -98t-7.5 -100.5t11.5 -91l-183 -102q-218 136 -313 308q-32 60 -55 123.5t-35 132.5q-16 -3 -31 -4.5t-32.5 -2
t-38.5 -1t-50 -0.5v316q66 0 96.5 1.5t33.5 11.5q4 12 13.5 34t21 45.5t22 44t16.5 30.5z" />
    <glyph glyph-name="uni06BE.fina" unicode="&#x6be;" horiz-adv-x="1172" arabic-form="final" 
d="M57 152l173 65q4 66 21 146.5t45.5 163t67.5 161.5t87.5 141t105 101.5t120.5 43.5q67 -1 124 -37.5t97.5 -95.5t63.5 -134t23 -152q0 -91 -39 -177t-102 -160.5t-143.5 -134t-164.5 -97.5q7 -24 29.5 -57.5t51 -67.5t57.5 -64t49 -48q-1 58 17 118.5t50 116.5t75 105.5
t93 86.5t104 58.5t107 21.5h23v-316h-23q-44 0 -85 -23t-72.5 -59.5t-50.5 -82.5t-19 -91q0 -20 3 -37.5t11 -35.5t21.5 -38t34.5 -43l-183 -223q-120 73 -210.5 145t-156.5 146t-110.5 152t-73.5 163h-4l-177 -64zM737 511q2 28 -0.5 59.5t-10 61t-20.5 53.5t-32 36
q-19 -10 -41.5 -38.5t-45.5 -68t-44.5 -87t-38.5 -96.5t-27.5 -95.5t-11.5 -83.5q43 8 89.5 32.5t86 60t66.5 78.5t30 88z" />
    <glyph glyph-name="uni06BE.init" unicode="&#x6be;" horiz-adv-x="1514" arabic-form="initial" 
d="M-20 256h62q11 0 25.5 1t36 2t58.5 3q-35 60 -53 127.5t-18 136.5q0 106 40 203.5t121 167.5l-52 29l193 284q127 -66 249.5 -125t234.5 -110q95 -44 168.5 -77.5t132.5 -66t106 -68.5t88 -84q52 -66 75 -144t23 -151q0 -112 -57.5 -211.5t-169.5 -166.5
q-31 -18 -76.5 -31t-95 -21.5t-97.5 -12.5t-84 -4q-42 0 -91 3.5t-98.5 11t-96.5 19.5t-86 28q-48 -14 -107.5 -25t-125 -18.5t-134 -11.5t-134.5 -4h-37v316zM559 746q-32 5 -68.5 -19t-66.5 -62t-48 -83.5t-14 -84.5q3 -26 20 -53t40.5 -52.5t50.5 -45t50 -28.5
q37 4 74 18t66 42t47 72t18 108q0 33 -18.5 65t-44.5 58.5t-55.5 44t-50.5 20.5zM991 600q0 -50 -10 -99.5t-27 -97t-38.5 -90t-45.5 -78.5h9q74 0 135 5.5t106 22t71.5 46t31.5 78.5q2 24 -20 52.5t-56.5 57t-76.5 55.5t-79 48z" />
    <glyph glyph-name="uni06BE.medi" unicode="&#x6be;" horiz-adv-x="1035" arabic-form="medial" 
d="M-20 256h71q3 66 20.5 143.5t47.5 156t71 152t90.5 131.5t107.5 94.5t121 40.5q67 -1 124 -37.5t97.5 -95.5t63.5 -134t23 -152q0 -91 -39 -177t-102 -160.5t-143.5 -134t-164.5 -97.5q7 -24 29.5 -57.5t51 -67.5t57.5 -64t49 -48q-1 58 17 118.5t50.5 116.5t76.5 105.5
t94.5 86.5t104.5 58.5t107 21.5h50v-316h-54q-44 0 -85 -23t-72.5 -59.5t-50.5 -82.5t-19 -91q0 -20 3 -37.5t11 -35.5t21.5 -38t34.5 -43l-183 -223q-120 73 -211 149t-157.5 155.5t-112 161.5t-74.5 167h-126v316zM569 511q2 28 -0.5 59.5t-10 61t-20.5 53.5t-32 36
q-19 -10 -41.5 -38.5t-45.5 -68t-44.5 -87t-38.5 -96.5t-27.5 -95.5t-11.5 -83.5q43 8 89.5 32.5t86 60t66.5 78.5t30 88z" />
    <glyph glyph-name="uni06D2.fina" unicode="&#x6d2;" horiz-adv-x="991" arabic-form="final" 
d="M1011 256v-316h-582q-52 0 -81 -16t-29 -43q0 -5 4 -12t12 -14t21 -11.5t31 -4.5h676v-314h-657q-101 0 -173.5 26.5t-119 71.5t-69 103.5t-22.5 122.5q0 72 29.5 145t85 131t135.5 94.5t181 36.5h558z" />
    <glyph glyph-name="uni06D3.fina" unicode="&#x6d3;" horiz-adv-x="991" arabic-form="final" 
d="M1011 256v-316h-582q-52 0 -81 -16t-29 -43q0 -5 4 -12t12 -14t21 -11.5t31 -4.5h676v-314h-657q-101 0 -173.5 26.5t-119 71.5t-69 103.5t-22.5 122.5q0 72 29.5 145t85 131t135.5 94.5t181 36.5h558zM555 771q-26 4 -46.5 8t-39 6.5t-36 1t-36.5 -8.5q-20 -8 -36 -21
t-26.5 -31t-12.5 -39.5t7 -46.5q6 -18 21.5 -29.5t33.5 -18.5t37 -8t33 2t23.5 6t26.5 10.5t48 23.5t89 46l76 -102l-257 -150l-240 -133l-62 113l166 93q-34 20 -60.5 50t-41.5 65q-17 42 -14.5 85t20.5 82t49 70.5t72 49.5q25 11 51 15.5t53 4.5q13 0 25.5 -1t28 -3.5
t36 -7t49.5 -11.5z" />
    <glyph glyph-name="uni0649.init" unicode="&#x649;" horiz-adv-x="723" arabic-form="initial" 
d="M-20 256h135q42 0 92.5 7t94 22.5t73 42t29.5 65.5q0 24 -14 71.5t-37 106t-52 122.5t-58 122l286 142q28 -63 55.5 -134t49.5 -144t35.5 -145.5t13.5 -138.5q0 -120 -40 -206t-112 -141.5t-172 -81.5t-220 -26h-159v316z" />
    <glyph glyph-name="uni0649.medi" unicode="&#x649;" horiz-adv-x="705" arabic-form="medial" 
d="M725 256v-316h-22q-97 0 -164 27t-117 74q-72 -53 -169.5 -77t-235.5 -24h-37v316h37q138 0 208 45t70 135q0 30 -8 84.5t-33 143.5l283 69q16 -55 26.5 -97.5t16.5 -77.5t9 -64.5t5 -57.5t6 -59.5t15.5 -58.5t32 -44.5t55.5 -17.5h22z" />
    <glyph glyph-name="uni06CC.fina" unicode="&#x6cc;" horiz-adv-x="1715" arabic-form="final" 
d="M830 -712q-108 0 -209 15.5t-189 48.5t-160.5 85t-124.5 125.5t-80.5 170t-28.5 218.5q0 88 7.5 167.5t23.5 157.5t41.5 158t61.5 170l257 -107q-29 -72 -49.5 -130t-34.5 -105.5t-22 -87.5t-12 -76.5t-5 -72t-1 -74.5q0 -75 24 -130t65 -93t94.5 -62.5t111.5 -37.5
t117.5 -18t112.5 -5q26 0 77 3.5t111.5 12t124 22.5t115.5 34.5t85 48t33 64.5q-72 54 -197 97t-306 65l41 304h821v-316h-130q21 -40 30.5 -80.5t10.5 -69.5q-5 -94 -47.5 -167.5t-109.5 -129.5t-152 -95t-174 -63.5t-175.5 -35.5t-157.5 -11z" />
    <glyph glyph-name="uni06CC.init" unicode="&#x6cc;" horiz-adv-x="838" arabic-form="initial" 
d="M-20 256h240q43 0 95 4.5t97.5 18.5t76 41.5t30.5 72.5q0 24 -14.5 71.5t-38 106t-53 122.5t-58.5 122l286 142q28 -63 55.5 -134t49.5 -144t35.5 -145.5t13.5 -138.5q0 -124 -45.5 -210.5t-123.5 -141t-183 -79t-225 -24.5h-238v316zM370 -353l-188 -188l-194 193
l192 193l190 -190l188 188l194 -193l-192 -193z" />
    <glyph glyph-name="uni06CC.medi" unicode="&#x6cc;" horiz-adv-x="852" arabic-form="medial" 
d="M872 256v-316h-23q-48 0 -94.5 8t-87.5 22.5t-75.5 34.5t-59.5 43q-47 -36 -107.5 -57t-128 -32.5t-139 -15t-140.5 -3.5h-37v316h37q72 0 128.5 4t99 14t71.5 26.5t47 41.5q23 32 28.5 71t1 80.5t-15.5 83t-20 79.5l291 83q12 -45 20.5 -82t15 -72t11.5 -71t11 -78
q4 -27 10.5 -58.5t21.5 -58.5t41.5 -45t69.5 -18h23zM370 -353l-188 -188l-194 193l192 193l190 -190l188 188l194 -193l-192 -193z" />
    <glyph glyph-name="uni0651064C" unicode="&#xfc5e;" arabic-form="isolated" 
d="M-139 1748q-41 1 -74.5 15t-57.5 37.5t-37.5 55.5t-13.5 71q0 26 5.5 52.5t13.5 49.5t15.5 40.5t12.5 24.5l102 -54q-11 -22 -22 -51t-12 -55.5t12 -45t49 -18.5q29 0 45.5 16t24.5 39.5t10 50t2 47.5l109 47q-7 -57 2.5 -94.5t27 -58.5t40 -27t42 0t33 22.5t13.5 39.5
q0 21 -10 46t-25 49.5t-32.5 47.5t-32.5 41l105 73q7 -10 23.5 -36t33.5 -61t30 -75t13 -77t-15 -72t-40.5 -62.5t-59 -44.5t-70.5 -17q-25 0 -57 9t-61 39q-52 -64 -136 -64h-8zM-232 2240q5 8 15 23.5t20.5 34t18.5 37.5t8 33q0 12 -1 22t-6 17q-2 5 -10 11t-17 7
q-11 0 -29.5 -8t-38 -18.5t-36 -21.5t-21.5 -16l-75 91q5 4 21 18.5t41 30t56.5 27.5t67.5 11q40 -2 73.5 -24t52.5 -55q19 -40 22 -81t-6 -83q22 7 50 16.5t56.5 20.5t55.5 22.5t46 22.5l-7 4q-113 58 -155 126.5t-4 143.5q14 28 35.5 52.5t48 42.5t56 28t59.5 10
q62 0 106.5 -38.5t61.5 -98.5q13 -47 10.5 -103t-16.5 -100l32 -17l-38 -118l-59 17q-31 -29 -72 -53t-86 -44t-89.5 -35t-82 -25.5t-64 -16.5t-34.5 -7zM158 2660q-19 0 -47.5 -14.5t-47.5 -40.5q-9 -12 10 -35.5t59 -43.5l72 -35q5 20 8 43.5t0.5 46.5t-12.5 43.5
t-31 33.5l-8 1q-2 1 -3 1z" />
    <glyph glyph-name="uni0651064D" unicode="&#xfc5f;" arabic-form="isolated" 
d="M-139 1666q-41 1 -74.5 15t-57.5 37.5t-37.5 55.5t-13.5 71q0 26 5.5 52.5t13.5 49.5t15.5 40.5t12.5 24.5l102 -54q-11 -22 -22 -51t-12 -55.5t12 -45t49 -18.5q29 0 45.5 16t24.5 39.5t10 50t2 47.5l109 47q-7 -57 2.5 -94.5t27 -58.5t40 -27t42 0t33 22.5t13.5 39.5
q0 21 -10 46t-25 49.5t-32.5 47.5t-32.5 41l105 73q7 -10 23.5 -36t33.5 -61t30 -75t13 -77t-15 -72t-40.5 -62.5t-59 -44.5t-70.5 -17q-25 0 -57 9t-61 39q-52 -64 -136 -64h-8zM289 1220l-566 -199v144l566 191v-136zM289 1479l-566 -199v144l566 191v-136z" />
    <glyph glyph-name="uni0651064E" unicode="&#xfc60;" arabic-form="isolated" 
d="M-139 1748q-41 1 -74.5 15t-57.5 37.5t-37.5 55.5t-13.5 71q0 26 5.5 52.5t13.5 49.5t15.5 40.5t12.5 24.5l102 -54q-11 -22 -22 -51t-12 -55.5t12 -45t49 -18.5q29 0 45.5 16t24.5 39.5t10 50t2 47.5l109 47q-7 -57 2.5 -94.5t27 -58.5t40 -27t42 0t33 22.5t13.5 39.5
q0 21 -10 46t-25 49.5t-32.5 47.5t-32.5 41l105 73q7 -10 23.5 -36t33.5 -61t30 -75t13 -77t-15 -72t-40.5 -62.5t-59 -44.5t-70.5 -17q-25 0 -57 9t-61 39q-52 -64 -136 -64h-8zM282 2353l-566 -199v144l566 191v-136z" />
    <glyph glyph-name="uni0651064F" unicode="&#xfc61;" arabic-form="isolated" 
d="M-139 1748q-41 1 -74.5 15t-57.5 37.5t-37.5 55.5t-13.5 71q0 26 5.5 52.5t13.5 49.5t15.5 40.5t12.5 24.5l102 -54q-11 -22 -22 -51t-12 -55.5t12 -45t49 -18.5q29 0 45.5 16t24.5 39.5t10 50t2 47.5l109 47q-7 -57 2.5 -94.5t27 -58.5t40 -27t42 0t33 22.5t13.5 39.5
q0 21 -10 46t-25 49.5t-32.5 47.5t-32.5 41l105 73q7 -10 23.5 -36t33.5 -61t30 -75t13 -77t-15 -72t-40.5 -62.5t-59 -44.5t-70.5 -17q-25 0 -57 9t-61 39q-52 -64 -136 -64h-8zM-305 2290q24 7 64 18t85 26t90.5 34t81.5 42l-62 27q-35 18 -63.5 45.5t-45.5 60.5
t-19.5 69.5t15.5 72.5q18 34 49 63.5t69.5 47.5t79.5 21t79 -15q29 -14 50.5 -36.5t36 -49.5t21.5 -58t7 -62t-5.5 -61.5t-12.5 -55.5l34 -8l-40 -128l-57 16q-44 -36 -102 -67.5t-114.5 -56t-103.5 -41.5t-69 -24l-30 -8zM36 2692q-23 0 -52.5 -18.5t-45.5 -46.5
q-1 -12 15.5 -28t40.5 -32.5t52 -30.5t51 -22q4 14 4 40.5t-5.5 53.5t-17 50t-30.5 31q-6 3 -12 3z" />
    <glyph glyph-name="uni06510650" unicode="&#xfc62;" arabic-form="isolated" 
d="M-139 1748q-41 1 -74.5 15t-57.5 37.5t-37.5 55.5t-13.5 71q0 26 5.5 52.5t13.5 49.5t15.5 40.5t12.5 24.5l102 -54q-11 -22 -22 -51t-12 -55.5t12 -45t49 -18.5q29 0 45.5 16t24.5 39.5t10 50t2 47.5l109 47q-7 -57 2.5 -94.5t27 -58.5t40 -27t42 0t33 22.5t13.5 39.5
q0 21 -10 46t-25 49.5t-32.5 47.5t-32.5 41l105 73q7 -10 23.5 -36t33.5 -61t30 -75t13 -77t-15 -72t-40.5 -62.5t-59 -44.5t-70.5 -17q-25 0 -57 9t-61 39q-52 -64 -136 -64h-8zM280 1583l-566 -199v144l566 191v-136z" />
    <glyph glyph-name="uniFC63" unicode="&#xfc63;" arabic-form="isolated" 
d="M-139 1748q-41 1 -74.5 15t-57.5 37.5t-37.5 55.5t-13.5 71q0 26 5.5 52.5t13.5 49.5t15.5 40.5t12.5 24.5l102 -54q-11 -22 -22 -51t-12 -55.5t12 -45t49 -18.5q29 0 45.5 16t24.5 39.5t10 50t2 47.5l109 47q-7 -57 2.5 -94.5t27 -58.5t40 -27t42 0t33 22.5t13.5 39.5
q0 21 -10 46t-25 49.5t-32.5 47.5t-32.5 41l105 73q7 -10 23.5 -36t33.5 -61t30 -75t13 -77t-15 -72t-40.5 -62.5t-59 -44.5t-70.5 -17q-25 0 -57 9t-61 39q-52 -64 -136 -64h-8zM-85 2215q13 58 19 107.5t6 89.5q0 42 -6 102.5t-19 118.5l131 47q6 -27 11 -59t8 -65
t5 -65.5t2 -61.5q0 -54 -5.5 -117.5t-19.5 -144.5z" />
    <glyph glyph-name="fathatan_01" unicode="&#xfe70;" arabic-form="isolated" 
d="M280 1830l-566 -199v144l566 191v-136zM280 2089l-566 -199v144l566 191v-136z" />
    <glyph glyph-name="dammatan_01" unicode="&#xfe72;" arabic-form="isolated" 
d="M-223 1658q5 8 15 23.5t20.5 34t18.5 37.5t8 33q0 12 -1 22t-6 17q-2 5 -10 11t-17 7q-11 0 -29.5 -8t-38 -18.5t-36 -21.5t-21.5 -16l-75 91q5 4 21 18.5t41 30t56.5 27.5t67.5 11q40 -2 73.5 -24t52.5 -55q19 -40 22 -81t-6 -83q22 7 50 16.5t56.5 20.5t55.5 22.5
t46 22.5l-7 4q-113 58 -155 126.5t-4 143.5q14 28 35.5 52.5t48 42.5t56 28t59.5 10q62 0 106.5 -38.5t61.5 -98.5q13 -47 10.5 -103t-16.5 -100l32 -17l-38 -118l-59 17q-31 -29 -72 -53t-86 -44t-89.5 -35t-82 -25.5t-64 -16.5t-34.5 -7zM167 2078q-19 0 -47.5 -14.5
t-47.5 -40.5q-9 -12 10 -35.5t59 -43.5l72 -35q5 20 8 43.5t0.5 46.5t-12.5 43.5t-31 33.5l-8 1q-2 1 -3 1z" />
    <glyph glyph-name="kasratan_01" unicode="&#xfe74;" arabic-form="isolated" 
d="M280 -717l-566 -199v144l566 191v-136zM280 -458l-566 -199v144l566 191v-136z" />
    <glyph glyph-name="fatha_01" unicode="&#xfe76;" arabic-form="isolated" 
d="M278 1841l-566 -199v144l566 191v-136z" />
    <glyph glyph-name="damma_01" unicode="&#xfe78;" arabic-form="isolated" 
d="M-310 1667q24 7 64 18t85 26t90.5 34t81.5 42l-62 27q-35 18 -63.5 45.5t-45.5 60.5t-19.5 69.5t15.5 72.5q18 34 49 63.5t69.5 47.5t79.5 21t79 -15q29 -14 50.5 -36.5t36 -49.5t21.5 -58t7 -62t-5.5 -61.5t-12.5 -55.5l34 -8l-40 -128l-57 16q-44 -36 -102 -67.5
t-114.5 -56t-103.5 -41.5t-69 -24l-30 -8zM31 2069q-23 0 -52.5 -18.5t-45.5 -46.5q-1 -12 15.5 -28t40.5 -32.5t52 -30.5t51 -22q4 14 4 40.5t-5.5 53.5t-17 50t-30.5 31q-6 3 -12 3z" />
    <glyph glyph-name="kasra_01" unicode="&#xfe7a;" arabic-form="isolated" 
d="M281 -475l-566 -199v144l566 191v-136z" />
    <glyph glyph-name="shadda_01" unicode="&#xfe7c;" arabic-form="isolated" 
d="M-139 1748q-41 1 -74.5 15t-57.5 37.5t-37.5 55.5t-13.5 71q0 26 5.5 52.5t13.5 49.5t15.5 40.5t12.5 24.5l102 -54q-11 -22 -22 -51t-12 -55.5t12 -45t49 -18.5q29 0 45.5 16t24.5 39.5t10 50t2 47.5l109 47q-7 -57 2.5 -94.5t27 -58.5t40 -27t42 0t33 22.5t13.5 39.5
q0 21 -10 46t-25 49.5t-32.5 47.5t-32.5 41l105 73q7 -10 23.5 -36t33.5 -61t30 -75t13 -77t-15 -72t-40.5 -62.5t-59 -44.5t-70.5 -17q-25 0 -57 9t-61 39q-52 -64 -136 -64h-8z" />
    <glyph glyph-name="sukun_01" unicode="&#xfe7e;" arabic-form="isolated" 
d="M1 1848q21 0 40 10.5t33.5 27t22.5 36.5t8 39t-8 38.5t-22.5 36t-33.5 27t-40 10.5t-40 -10.5t-33 -27t-22.5 -36t-8.5 -38.5t8.5 -39t22.5 -36.5t33 -27t40 -10.5zM1 2180q50 0 90.5 -19.5t69 -50.5t44 -70t15.5 -79t-16 -79t-44.5 -70.5t-69 -51t-89.5 -19.5
q-50 0 -90.5 19.5t-69 50.5t-44 70.5t-15.5 79.5t16 79.5t44.5 70.5t69 50t89.5 19z" />
    <glyph glyph-name="uni0622.fina" unicode="&#x622;" horiz-adv-x="640" arabic-form="final" 
d="M632 -60q-125 0 -212 33.5t-142 92.5t-79.5 139.5t-24.5 174.5q0 48 2 119.5t2 165.5q0 72 -0.5 157t-3 173t-6.5 175t-11 164l299 89q6 -65 10.5 -137.5t7 -145.5t4 -144t2.5 -134q1 -75 -2.5 -157.5t-5.5 -158t1.5 -136.5t18.5 -93q9 -23 22.5 -35t31.5 -18t39.5 -7
t47.5 -1h27v-316h-28zM-47 1529q9 50 35 96t62 81t79.5 55.5t89.5 20.5q47 0 83.5 -11t68.5 -25q43 -18 75.5 -23.5t60 3.5t53 32t54.5 61l137 -88q-1 -3 -11 -17t-27.5 -34t-42.5 -42.5t-56 -42t-67 -32.5t-76 -14t-73 9t-64 22t-63.5 21.5t-70.5 8.5q-26 -1 -42 -16.5
t-25 -36.5t-13.5 -43t-8.5 -34z" />
    <glyph glyph-name="uni0623.fina" unicode="&#x623;" horiz-adv-x="640" arabic-form="final" 
d="M632 -60q-125 0 -212 33.5t-142 92.5t-79.5 139.5t-24.5 174.5q0 48 2 119.5t2 165.5q0 72 -0.5 157t-3 173t-6.5 175t-11 164l299 89q6 -65 10.5 -137.5t7 -145.5t4 -144t2.5 -134q1 -75 -2.5 -157.5t-5.5 -158t1.5 -136.5t18.5 -93q9 -23 22.5 -35t31.5 -18t39.5 -7
t47.5 -1h27v-316h-28zM434 1917q-26 4 -46.5 8t-39 6.5t-36 1t-36.5 -8.5q-20 -8 -36 -21t-26.5 -31t-12.5 -39.5t7 -46.5q6 -18 21.5 -29.5t33.5 -18.5t37 -8t33 2t23.5 6t26.5 10.5t48 23.5t89 46l76 -102l-257 -150l-240 -133l-62 113l166 93q-34 20 -60.5 50t-41.5 65
q-17 42 -14.5 85t20.5 82t49 70.5t72 49.5q25 11 51 15.5t53 4.5q13 0 25.5 -1t28 -3.5t36 -7t49.5 -11.5z" />
    <glyph glyph-name="uni0624.fina" unicode="&#x624;" horiz-adv-x="1043" arabic-form="final" 
d="M28 -457q141 28 257 70.5t203.5 95t145 111.5t81.5 120q-43 0 -91 1.5t-79 3.5q-99 8 -180 37.5t-139.5 81t-90.5 125.5t-32 170q0 61 13 125t37.5 125t61 115t82.5 95t101.5 64.5t119.5 23.5q76 0 140 -27.5t117.5 -74.5t95 -110.5t72 -136t50 -150t27.5 -152.5h43v-316
h-64q-39 -147 -124.5 -266.5t-204.5 -208.5t-264.5 -147t-303.5 -82zM518 590q-21 4 -48 -14.5t-50 -50t-39 -69.5t-15 -73q1 -34 22 -56t54 -36.5t74.5 -21.5t82.5 -10t77 -3h62q-15 62 -35.5 119t-47.5 102t-61 75t-76 38zM581 1362q-26 4 -46.5 8t-39 6.5t-36 1
t-36.5 -8.5q-20 -8 -36 -21t-26.5 -31t-12.5 -39.5t7 -46.5q6 -18 21.5 -29.5t33.5 -18.5t37 -8t33 2t23.5 6t26.5 10.5t48 23.5t89 46l76 -102l-257 -150l-240 -133l-62 113l166 93q-34 20 -60.5 50t-41.5 65q-17 42 -14.5 85t20.5 82t49 70.5t72 49.5q25 11 51 15.5
t53 4.5q13 0 25.5 -1t28 -3.5t36 -7t49.5 -11.5z" />
    <glyph glyph-name="uni0625.fina" unicode="&#x625;" horiz-adv-x="640" arabic-form="final" 
d="M632 -60q-125 0 -212 33.5t-142 92.5t-79.5 139.5t-24.5 174.5q0 48 2 119.5t2 165.5q0 72 -0.5 157t-3 173t-6.5 175t-11 164l299 89q6 -65 10.5 -137.5t7 -145.5t4 -144t2.5 -134q1 -75 -2.5 -157.5t-5.5 -158t1.5 -136.5t18.5 -93q9 -23 22.5 -35t31.5 -18t39.5 -7
t47.5 -1h27v-316h-28zM448 -249q-26 4 -46.5 8t-39 6.5t-36 1t-36.5 -8.5q-20 -8 -36 -21t-26.5 -31t-12.5 -39.5t7 -46.5q6 -18 21.5 -29.5t33.5 -18.5t37 -8t33 2t23.5 6t26.5 10.5t48 23.5t89 46l76 -102l-257 -150l-240 -133l-62 113l166 93q-34 20 -60.5 50t-41.5 65
q-17 42 -14.5 85t20.5 82t49 70.5t72 49.5q25 11 51 15.5t53 4.5q13 0 25.5 -1t28 -3.5t36 -7t49.5 -11.5z" />
    <glyph glyph-name="uni0626.fina" unicode="&#x626;" horiz-adv-x="1715" arabic-form="final" 
d="M830 -712q-108 0 -209 15.5t-189 48.5t-160.5 85t-124.5 125.5t-80.5 170t-28.5 218.5q0 88 7.5 167.5t23.5 157.5t41.5 158t61.5 170l257 -107q-29 -72 -49.5 -130t-34.5 -105.5t-22 -87.5t-12 -76.5t-5 -72t-1 -74.5q0 -75 24 -130t65 -93t94.5 -62.5t111.5 -37.5
t117.5 -18t112.5 -5q26 0 77 3.5t111.5 12t124 22.5t115.5 34.5t85 48t33 64.5q-72 54 -197 97t-306 65l41 304h821v-316h-130q21 -40 30.5 -80.5t10.5 -69.5q-5 -94 -47.5 -167.5t-109.5 -129.5t-152 -95t-174 -63.5t-175.5 -35.5t-157.5 -11zM770 1158q-26 4 -46.5 8
t-39 6.5t-36 1t-36.5 -8.5q-20 -8 -36 -21t-26.5 -31t-12.5 -39.5t7 -46.5q6 -18 21.5 -29.5t33.5 -18.5t37 -8t33 2t23.5 6t26.5 10.5t48 23.5t89 46l76 -102l-257 -150l-240 -133l-62 113l166 93q-34 20 -60.5 50t-41.5 65q-17 42 -14.5 85t20.5 82t49 70.5t72 49.5
q25 11 51 15.5t53 4.5q13 0 25.5 -1t28 -3.5t36 -7t49.5 -11.5z" />
    <glyph glyph-name="uni0626.init" unicode="&#x626;" horiz-adv-x="838" arabic-form="initial" 
d="M-20 256h240q43 0 95 4.5t97.5 18.5t76 41.5t30.5 72.5q0 24 -14.5 71.5t-38 106t-53 122.5t-58.5 122l286 142q28 -63 55.5 -134t49.5 -144t35.5 -145.5t13.5 -138.5q0 -124 -45.5 -210.5t-123.5 -141t-183 -79t-225 -24.5h-238v316zM544 1444q-26 4 -46.5 8t-39 6.5
t-36 1t-36.5 -8.5q-20 -8 -36 -21t-26.5 -31t-12.5 -39.5t7 -46.5q6 -18 21.5 -29.5t33.5 -18.5t37 -8t33 2t23.5 6t26.5 10.5t48 23.5t89 46l76 -102l-257 -150l-240 -133l-62 113l166 93q-34 20 -60.5 50t-41.5 65q-17 42 -14.5 85t20.5 82t49 70.5t72 49.5q25 11 51 15.5
t53 4.5q13 0 25.5 -1t28 -3.5t36 -7t49.5 -11.5z" />
    <glyph glyph-name="uni0626.medi" unicode="&#x626;" horiz-adv-x="852" arabic-form="medial" 
d="M872 256v-316h-23q-48 0 -94.5 8t-87.5 22.5t-75.5 34.5t-59.5 43q-47 -36 -107.5 -57t-128 -32.5t-139 -15t-140.5 -3.5h-37v316h37q72 0 128.5 4t99 14t71.5 26.5t47 41.5q23 32 28.5 71t1 80.5t-15.5 83t-20 79.5l291 83q12 -45 20.5 -82t15 -72t11.5 -71t11 -78
q4 -27 10.5 -58.5t21.5 -58.5t41.5 -45t69.5 -18h23zM514 1273q-26 4 -46.5 8t-39 6.5t-36 1t-36.5 -8.5q-20 -8 -36 -21t-26.5 -31t-12.5 -39.5t7 -46.5q6 -18 21.5 -29.5t33.5 -18.5t37 -8t33 2t23.5 6t26.5 10.5t48 23.5t89 46l76 -102l-257 -150l-240 -133l-62 113
l166 93q-34 20 -60.5 50t-41.5 65q-17 42 -14.5 85t20.5 82t49 70.5t72 49.5q25 11 51 15.5t53 4.5q13 0 25.5 -1t28 -3.5t36 -7t49.5 -11.5z" />
    <glyph glyph-name="uni0627.fina" unicode="&#x627;" horiz-adv-x="624" arabic-form="final" 
d="M616 -60q-125 0 -212 33.5t-142 92.5t-79.5 139.5t-24.5 174.5q0 48 2 119.5t2 165.5t-1 206.5t-5.5 225.5t-13 217t-23.5 181l299 91q13 -66 21.5 -155.5t13.5 -187.5t7.5 -197t3.5 -184q1 -75 -2.5 -157.5t-5.5 -158t1.5 -136.5t18.5 -93q9 -23 22.5 -35t31.5 -18
t39.5 -7t47.5 -1h27v-316h-28z" />
    <glyph glyph-name="uni0628.fina" unicode="&#x628;" horiz-adv-x="2316" arabic-form="final" 
d="M2300 -60q-83 0 -151 13t-124.5 41t-101.5 72.5t-81 107.5q-142 -121 -343.5 -179t-470.5 -58q-350 0 -578 77.5t-326 241.5q-32 53 -46 122t-8.5 151t32 173.5t76.5 189.5l238 -138q-20 -39 -38 -84.5t-27.5 -91t-9 -88t18.5 -75.5q30 -56 95.5 -88t155 -48t196.5 -19.5
t221 -3.5q105 0 199 7.5t173.5 24t144 43t110.5 64.5q42 34 69 75t46 86.5t31.5 95.5t24.5 101l280 -71l-41 -212q-9 -46 2 -85t41 -67.5t78.5 -45t113.5 -16.5h36v-316h-36v0zM1058 -608l-222 222l222 222l222 -222z" />
    <glyph glyph-name="uni0628.init" unicode="&#x628;" horiz-adv-x="715" arabic-form="initial" 
d="M-20 256h135q42 0 92.5 7t94 22.5t73 42t29.5 65.5q0 24 -14 71.5t-37 106t-52 122.5t-58 122l286 142q28 -63 55.5 -134t49.5 -144t35.5 -145.5t13.5 -138.5q0 -120 -40 -206t-112 -141.5t-172 -81.5t-220 -26h-159v316zM303 -608l-222 222l222 222l222 -222z" />
    <glyph glyph-name="uni0628.medi" unicode="&#x628;" horiz-adv-x="705" arabic-form="medial" 
d="M725 256v-316h-22q-97 0 -164 27t-117 74q-72 -53 -169.5 -77t-235.5 -24h-37v316h37q138 0 208 45t70 135q0 30 -8 84.5t-33 143.5l283 69q16 -55 26.5 -97.5t16.5 -77.5t9 -64.5t5 -57.5t6 -59.5t15.5 -58.5t32 -44.5t55.5 -17.5h22zM336 -608l-222 222l222 222
l222 -222z" />
    <glyph glyph-name="uni0629.fina" unicode="&#x629;" horiz-adv-x="1090" arabic-form="final" 
d="M544 80q-98 0 -184 20t-150 62t-101 107t-37 156q0 69 25.5 130.5t67 115t94 98t106 79.5t103 59t86.5 37q-1 12 -2 24.5t-2 30.5t-3 42t-5 59l312 67q21 -188 40 -343t33.5 -267t24 -176t11.5 -68q15 -32 44.5 -44.5t80.5 -12.5h22v-316h-29q-42 0 -97 7.5t-115 35.5
q-42 20 -73.5 45.5t-60.5 64.5q-51 -7 -98.5 -10t-92.5 -3zM538 394q21 0 43.5 1.5t43.5 3.5q-3 17 -5.5 37.5t-6 50t-8.5 70.5t-11 100q-38 -19 -85 -45.5t-88.5 -56t-69.5 -60t-28 -56.5q0 -13 22.5 -21.5t55.5 -14t70 -7.5t67 -2zM599 1463l-188 -188l-194 193l192 193
l190 -190l188 188l194 -193l-192 -193z" />
    <glyph glyph-name="uni062A.fina" unicode="&#x62a;" horiz-adv-x="2316" arabic-form="final" 
d="M2300 -60q-83 0 -151 13t-124.5 41t-101.5 72.5t-81 107.5q-142 -121 -343.5 -179t-470.5 -58q-350 0 -578 77.5t-326 241.5q-32 53 -46 122t-8.5 151t32 173.5t76.5 189.5l238 -138q-20 -39 -38 -84.5t-27.5 -91t-9 -88t18.5 -75.5q30 -56 95.5 -88t155 -48t196.5 -19.5
t221 -3.5q105 0 199 7.5t173.5 24t144 43t110.5 64.5q42 34 69 75t46 86.5t31.5 95.5t24.5 101l280 -71l-41 -212q-9 -46 2 -85t41 -67.5t78.5 -45t113.5 -16.5h36v-316h-36v0zM1111 1005l-188 -188l-194 193l192 193l190 -190l188 188l194 -193l-192 -193z" />
    <glyph glyph-name="uni062A.init" unicode="&#x62a;" horiz-adv-x="843" arabic-form="initial" 
d="M-20 256h240q43 0 95 4.5t97.5 18.5t76 41.5t30.5 72.5q0 24 -14.5 71.5t-38 106t-53 122.5t-58.5 122l286 142q28 -63 55.5 -134t49.5 -144t35.5 -145.5t13.5 -138.5q0 -124 -45.5 -210.5t-123.5 -141t-183 -79t-225 -24.5h-238v316zM446 1287l-188 -188l-194 193
l192 193l190 -190l188 188l194 -193l-192 -193z" />
    <glyph glyph-name="uni062A.medi" unicode="&#x62a;" horiz-adv-x="852" arabic-form="medial" 
d="M872 256v-316h-23q-48 0 -94.5 8t-87.5 22.5t-75.5 34.5t-59.5 43q-47 -36 -107.5 -57t-128 -32.5t-139 -15t-140.5 -3.5h-37v316h37q72 0 128.5 4t99 14t71.5 26.5t47 41.5q23 32 28.5 71t1 80.5t-15.5 83t-20 79.5l291 83q12 -45 20.5 -82t15 -72t11.5 -71t11 -78
q4 -27 10.5 -58.5t21.5 -58.5t41.5 -45t69.5 -18h23zM446 1131l-188 -188l-194 193l192 193l190 -190l188 188l194 -193l-192 -193z" />
    <glyph glyph-name="uni062B.fina" unicode="&#x62b;" horiz-adv-x="2316" arabic-form="final" 
d="M2300 -60q-83 0 -151 13t-124.5 41t-101.5 72.5t-81 107.5q-142 -121 -343.5 -179t-470.5 -58q-350 0 -578 77.5t-326 241.5q-32 53 -46 122t-8.5 151t32 173.5t76.5 189.5l238 -138q-20 -39 -38 -84.5t-27.5 -91t-9 -88t18.5 -75.5q30 -56 95.5 -88t155 -48t196.5 -19.5
t221 -3.5q105 0 199 7.5t173.5 24t144 43t110.5 64.5q42 34 69 75t46 86.5t31.5 95.5t24.5 101l280 -71l-41 -212q-9 -46 2 -85t41 -67.5t78.5 -45t113.5 -16.5h36v-316h-36v0zM1110 992l-188 -188l-194 193l192 193l190 -190l188 188l194 -193l-192 -193zM1289 1284
l-178 -178l-179 179l178 178z" />
    <glyph glyph-name="uni062B.init" unicode="&#x62b;" horiz-adv-x="843" arabic-form="initial" 
d="M-20 256h240q43 0 95 4.5t97.5 18.5t76 41.5t30.5 72.5q0 24 -14.5 71.5t-38 106t-53 122.5t-58.5 122l286 142q28 -63 55.5 -134t49.5 -144t35.5 -145.5t13.5 -138.5q0 -124 -45.5 -210.5t-123.5 -141t-183 -79t-225 -24.5h-238v316zM418 1292l-188 -188l-194 193
l192 193l190 -190l188 188l194 -193l-192 -193zM597 1584l-178 -178l-179 179l178 178z" />
    <glyph glyph-name="uni062B.medi" unicode="&#x62b;" horiz-adv-x="852" arabic-form="medial" 
d="M872 256v-316h-23q-48 0 -94.5 8t-87.5 22.5t-75.5 34.5t-59.5 43q-47 -36 -107.5 -57t-128 -32.5t-139 -15t-140.5 -3.5h-37v316h37q72 0 128.5 4t99 14t71.5 26.5t47 41.5q23 32 28.5 71t1 80.5t-15.5 83t-20 79.5l291 83q12 -45 20.5 -82t15 -72t11.5 -71t11 -78
q4 -27 10.5 -58.5t21.5 -58.5t41.5 -45t69.5 -18h23zM418 1132l-188 -188l-194 193l192 193l190 -190l188 188l194 -193l-192 -193zM597 1424l-178 -178l-179 179l178 178z" />
    <glyph glyph-name="uni062C.fina" unicode="&#x62c;" horiz-adv-x="1702" arabic-form="final" 
d="M1569 -595q-80 -57 -165 -103.5t-175.5 -79.5t-187 -51t-198.5 -18q-167 0 -312 46t-252.5 134t-169.5 215.5t-62 291.5v24q0 12 1 24q9 104 60 196t132.5 170.5t188 142t227 110t249 75.5t253.5 38q-53 29 -120.5 62.5t-139 62.5t-140 48.5t-123.5 19.5
q-36 0 -78.5 -14.5t-83 -39.5t-75 -59t-55.5 -73l-225 153q44 77 99 141.5t119.5 111t139.5 72t159 25.5q63 0 127 -15.5t126.5 -41t122 -58.5t114.5 -69q82 -53 149.5 -92.5t128 -68t119.5 -48t124 -32.5l-93 -315l-170 -23q13 -36 49.5 -58t82.5 -34t95.5 -15.5t89.5 -3.5
h22v-316h-22q-122 0 -214 20.5t-159.5 54t-113 75.5t-74 85t-43 83t-19.5 69q-84 -16 -172 -40t-171.5 -56.5t-157 -72t-129.5 -86.5t-89 -101t-35 -114q-3 -101 45.5 -173t128.5 -118t181 -67.5t203 -21.5q67 0 138 11t141 31.5t137.5 50.5t127.5 68l144 -233v0zM903 -340
l-222 222l222 222l222 -222z" />
    <glyph glyph-name="uni062C.init" unicode="&#x62c;" horiz-adv-x="1587" arabic-form="initial" 
d="M-20 256h211q162 0 297.5 19.5t253.5 52.5t223.5 76.5t207.5 90.5q-68 19 -136.5 47t-137 54t-136.5 44.5t-135 18.5q-46 0 -90.5 -25t-80.5 -57t-60 -62.5t-30 -41.5l-231 149q38 67 90 131t114.5 113.5t135 79.5t152.5 30q59 0 118 -12.5t117.5 -32.5t115.5 -45.5
t113 -51.5q53 -25 107 -49.5t111 -45t118 -33.5t129 -14l-25 -307l-142 -68q-87 -42 -173 -86.5t-175 -86t-184 -79t-199 -65t-220 -44t-248 -16.5h-211v316zM805 -606l-222 222l222 222l222 -222z" />
    <glyph glyph-name="uni062C.medi" unicode="&#x62c;" horiz-adv-x="1667" arabic-form="medial" 
d="M-20 256h203q73 0 154.5 10t166.5 27t171 40.5t167.5 50.5t156 57t137.5 60q-62 15 -138 42t-154 53t-151.5 44.5t-131.5 17.5q-37 -1 -71.5 -15.5t-64 -36t-53 -46t-40.5 -46t-27 -36.5l-9 -14l-237 136q40 74 96 142.5t122 121t138.5 83.5t145.5 30q54 -1 107.5 -13
t107.5 -30.5t109 -43t111 -50.5q57 -28 126.5 -55t145 -48t154 -34t153.5 -13l-52 -295q-23 -10 -51.5 -23.5t-50.5 -24.5l-26 -13q23 -27 58.5 -43t73 -23.5t71.5 -9.5t55 -2h34v-316h-34q-96 0 -180.5 17t-154 49.5t-123.5 79t-89 105.5q-99 -48 -206 -93t-222 -80.5
t-238.5 -56.5t-256.5 -21h-203v316zM805 -608l-222 222l222 222l222 -222z" />
    <glyph glyph-name="uni062D.fina" unicode="&#x62d;" horiz-adv-x="1702" arabic-form="final" 
d="M1569 -595q-80 -57 -165 -103.5t-175.5 -79.5t-187 -51t-198.5 -18q-167 0 -312 46t-252.5 134t-169.5 215.5t-62 291.5v24q0 12 1 24q9 104 60 196t132.5 170.5t188 142t227 110t249 75.5t253.5 38q-53 29 -120.5 62.5t-139 62.5t-140 48.5t-123.5 19.5
q-36 0 -78.5 -14.5t-83 -39.5t-75 -59t-55.5 -73l-225 153q44 77 99 141.5t119.5 111t139.5 72t159 25.5q63 0 127 -15.5t126.5 -41t122 -58.5t114.5 -69q82 -53 149.5 -92.5t128 -68t119.5 -48t124 -32.5l-93 -315l-170 -23q13 -36 49.5 -58t82.5 -34t95.5 -15.5t89.5 -3.5
h22v-316h-22q-122 0 -214 20.5t-159.5 54t-113 75.5t-74 85t-43 83t-19.5 69q-84 -16 -172 -40t-171.5 -56.5t-157 -72t-129.5 -86.5t-89 -101t-35 -114q-3 -101 45.5 -173t128.5 -118t181 -67.5t203 -21.5q67 0 138 11t141 31.5t137.5 50.5t127.5 68l144 -233v0z" />
    <glyph glyph-name="uni062D.init" unicode="&#x62d;" horiz-adv-x="1587" arabic-form="initial" 
d="M-20 256h211q162 0 297.5 19.5t253.5 52.5t223.5 76.5t207.5 90.5q-68 19 -136.5 47t-137 54t-136.5 44.5t-135 18.5q-46 0 -90.5 -25t-80.5 -57t-60 -62.5t-30 -41.5l-231 149q38 67 90 131t114.5 113.5t135 79.5t152.5 30q59 0 118 -12.5t117.5 -32.5t115.5 -45.5
t113 -51.5q53 -25 107 -49.5t111 -45t118 -33.5t129 -14l-25 -307l-142 -68q-87 -42 -173 -86.5t-175 -86t-184 -79t-199 -65t-220 -44t-248 -16.5h-211v316z" />
    <glyph glyph-name="uni062D.medi" unicode="&#x62d;" horiz-adv-x="1667" arabic-form="medial" 
d="M-20 256h203q73 0 154.5 10t166.5 27t171 40.5t167.5 50.5t156 57t137.5 60q-62 15 -138 42t-154 53t-151.5 44.5t-131.5 17.5q-37 -1 -71.5 -15.5t-64 -36t-53 -46t-40.5 -46t-27 -36.5l-9 -14l-237 136q40 74 96 142.5t122 121t138.5 83.5t145.5 30q54 -1 107.5 -13
t107.5 -30.5t109 -43t111 -50.5q57 -28 126.5 -55t145 -48t154 -34t153.5 -13l-52 -295q-23 -10 -51.5 -23.5t-50.5 -24.5l-26 -13q23 -27 58.5 -43t73 -23.5t71.5 -9.5t55 -2h34v-316h-34q-96 0 -180.5 17t-154 49.5t-123.5 79t-89 105.5q-99 -48 -206 -93t-222 -80.5
t-238.5 -56.5t-256.5 -21h-203v316z" />
    <glyph glyph-name="uni062E.fina" unicode="&#x62e;" horiz-adv-x="1702" arabic-form="final" 
d="M1569 -595q-80 -57 -165 -103.5t-175.5 -79.5t-187 -51t-198.5 -18q-167 0 -312 46t-252.5 134t-169.5 215.5t-62 291.5v24q0 12 1 24q9 104 60 196t132.5 170.5t188 142t227 110t249 75.5t253.5 38q-53 29 -120.5 62.5t-139 62.5t-140 48.5t-123.5 19.5
q-36 0 -78.5 -14.5t-83 -39.5t-75 -59t-55.5 -73l-225 153q44 77 99 141.5t119.5 111t139.5 72t159 25.5q63 0 127 -15.5t126.5 -41t122 -58.5t114.5 -69q82 -53 149.5 -92.5t128 -68t119.5 -48t124 -32.5l-93 -315l-170 -23q13 -36 49.5 -58t82.5 -34t95.5 -15.5t89.5 -3.5
h22v-316h-22q-122 0 -214 20.5t-159.5 54t-113 75.5t-74 85t-43 83t-19.5 69q-84 -16 -172 -40t-171.5 -56.5t-157 -72t-129.5 -86.5t-89 -101t-35 -114q-3 -101 45.5 -173t128.5 -118t181 -67.5t203 -21.5q67 0 138 11t141 31.5t137.5 50.5t127.5 68l144 -233v0zM641 1197
l-222 222l222 222l222 -222z" />
    <glyph glyph-name="uni062E.init" unicode="&#x62e;" horiz-adv-x="1587" arabic-form="initial" 
d="M-20 256h211q162 0 297.5 19.5t253.5 52.5t223.5 76.5t207.5 90.5q-68 19 -136.5 47t-137 54t-136.5 44.5t-135 18.5q-46 0 -90.5 -25t-80.5 -57t-60 -62.5t-30 -41.5l-231 149q38 67 90 131t114.5 113.5t135 79.5t152.5 30q59 0 118 -12.5t117.5 -32.5t115.5 -45.5
t113 -51.5q53 -25 107 -49.5t111 -45t118 -33.5t129 -14l-25 -307l-142 -68q-87 -42 -173 -86.5t-175 -86t-184 -79t-199 -65t-220 -44t-248 -16.5h-211v316zM627 1072l-222 222l222 222l222 -222z" />
    <glyph glyph-name="uni062E.medi" unicode="&#x62e;" horiz-adv-x="1667" arabic-form="medial" 
d="M-20 256h203q73 0 154.5 10t166.5 27t171 40.5t167.5 50.5t156 57t137.5 60q-62 15 -138 42t-154 53t-151.5 44.5t-131.5 17.5q-37 -1 -71.5 -15.5t-64 -36t-53 -46t-40.5 -46t-27 -36.5l-9 -14l-237 136q40 74 96 142.5t122 121t138.5 83.5t145.5 30q54 -1 107.5 -13
t107.5 -30.5t109 -43t111 -50.5q57 -28 126.5 -55t145 -48t154 -34t153.5 -13l-52 -295q-23 -10 -51.5 -23.5t-50.5 -24.5l-26 -13q23 -27 58.5 -43t73 -23.5t71.5 -9.5t55 -2h34v-316h-34q-96 0 -180.5 17t-154 49.5t-123.5 79t-89 105.5q-99 -48 -206 -93t-222 -80.5
t-238.5 -56.5t-256.5 -21h-203v316zM547 1076l-222 222l222 222l222 -222z" />
    <glyph glyph-name="uni062F.fina" unicode="&#x62f;" horiz-adv-x="1262" arabic-form="final" 
d="M534 -60q-131 0 -256.5 50t-232.5 161l181 255q49 -45 95 -73.5t88 -44.5t79.5 -22t70.5 -6q27 0 58 3.5t61.5 11.5t57.5 20t47 30q-38 92 -82.5 191.5t-89.5 200t-89 199.5t-82 190l292 122l330 -797q18 -44 33 -77t35.5 -55t49 -32.5t73.5 -10.5h29v-316h-29
q-61 0 -107.5 8t-83 22.5t-65 35t-53.5 45.5q-46 -31 -92 -52.5t-96 -34.5t-104.5 -18.5t-117.5 -5.5z" />
    <glyph glyph-name="uni0630.fina" unicode="&#x630;" horiz-adv-x="1262" arabic-form="final" 
d="M534 -60q-131 0 -256.5 50t-232.5 161l181 255q49 -45 95 -73.5t88 -44.5t79.5 -22t70.5 -6q27 0 58 3.5t61.5 11.5t57.5 20t47 30q-38 92 -82.5 191.5t-89.5 200t-89 199.5t-82 190l292 122l330 -797q18 -44 33 -77t35.5 -55t49 -32.5t73.5 -10.5h29v-316h-29
q-61 0 -107.5 8t-83 22.5t-65 35t-53.5 45.5q-46 -31 -92 -52.5t-96 -34.5t-104.5 -18.5t-117.5 -5.5zM693 1296l-222 222l222 222l222 -222z" />
    <glyph glyph-name="uni0631.fina" unicode="&#x631;" horiz-adv-x="816" arabic-form="final" 
d="M816 -60q-22 0 -58 3t-82 22q-22 -124 -82.5 -235.5t-149.5 -209t-203 -179.5t-243 -147l-183 253q71 36 143 78.5t137.5 90t122 99t98.5 106.5t66 112.5t24 116.5q0 39 -15 99t-38 129t-51 139t-54 128l289 126q40 -120 76.5 -200t70.5 -128t65.5 -67.5t62.5 -19.5h24
v-316h-20z" />
    <glyph glyph-name="uni0632.fina" unicode="&#x632;" horiz-adv-x="813" arabic-form="final" 
d="M816 -60q-22 0 -58 3t-82 22q-22 -124 -82.5 -235.5t-149.5 -209t-203 -179.5t-243 -147l-183 253q71 36 143 78.5t137.5 90t122 99t98.5 106.5t66 112.5t24 116.5q0 39 -15 99t-38 129t-51 139t-54 128l289 126q40 -120 76.5 -200t70.5 -128t65.5 -67.5t62.5 -19.5h24
v-316h-20zM395 868l-222 222l222 222l222 -222z" />
    <glyph glyph-name="uni0633.fina" unicode="&#x633;" horiz-adv-x="2889" arabic-form="final" 
d="M2228 -58q-86 0 -144.5 33t-96.5 83q-21 -27 -45 -48.5t-56.5 -37t-76 -23.5t-103.5 -8q-42 0 -77 6t-64 15q-1 -117 -35.5 -213t-94 -172t-139.5 -132t-172 -92.5t-192.5 -54.5t-199.5 -18q-153 0 -283 50.5t-224.5 142t-147.5 220t-53 283.5q3 90 24.5 184t55 184
t75 171.5t84.5 146.5l218 -167q-36 -59 -69 -125t-57.5 -133.5t-39.5 -135.5t-15 -131q-3 -76 29.5 -143.5t91 -118t137.5 -80t170 -29.5q69 0 137.5 9.5t131 31t116.5 55t93.5 81.5t62 111.5t22.5 144.5q0 60 -18 125.5t-47.5 134t-67 139.5t-77.5 142l277 148
q36 -86 75 -169t81 -148.5t87 -105t93 -37.5q40 1 63.5 22t36.5 55t17 78t4 92l-6 173l284 39q0 -28 2.5 -73.5t9 -97.5t18 -105t29.5 -95.5t43 -69.5t59 -27q33 0 58.5 30.5t43 78.5t26 106.5t8.5 114.5q0 22 -0.5 31.5t-0.5 17t-0.5 18t-0.5 34.5l271 39q4 -55 7 -90
t6 -63.5t7.5 -58t12.5 -73.5q9 -46 27 -80t43 -56.5t55 -33.5t62 -11h30v-316l-20 -1q-112 0 -197 35.5t-145 113.5q-54 -69 -135 -107.5t-184 -38.5z" />
    <glyph glyph-name="uni0633.init" unicode="&#x633;" horiz-adv-x="1658" arabic-form="initial" 
d="M0 256q75 0 126.5 40.5t88 106.5t62 150.5t48.5 172.5l266 -48q-8 -35 -19.5 -81.5t-21 -96.5t-15.5 -97.5t-2.5 -83.5t18.5 -56.5t46 -15.5q40 3 72.5 28t58.5 64t46 88t34.5 101t24 103t15.5 93l254 -43q-1 -30 -7 -74t-11 -92.5t-5 -97t11 -87t36.5 -62.5t71.5 -24
q28 0 57 9.5t52 27t37.5 41.5t14.5 54q0 52 -17 114.5t-41.5 124t-50.5 116.5t-44 93l248 139l21 -46q15 -32 34 -78t39.5 -103.5t37.5 -119.5t28 -127t11 -126q0 -100 -27.5 -180t-83 -136t-139 -87t-195.5 -32q-54 0 -98 10.5t-79.5 28.5t-62.5 43t-48 54
q-24 -31 -51.5 -55.5t-63 -42t-79.5 -27.5t-100 -11q-49 -1 -88.5 8.5t-72.5 27.5t-59.5 43.5t-49.5 56.5q-21 -26 -48 -48.5t-64 -39.5t-86 -26.5t-114 -9.5h-36v316h20z" />
    <glyph glyph-name="uni0633.medi" unicode="&#x633;" horiz-adv-x="1851" arabic-form="medial" 
d="M-1 256q53 0 99 17.5t87 67.5t77 141t69 238l265 -38q-1 -5 -3 -13q-6 -25 -14.5 -70.5t-16 -102t-7 -108t12 -89t40.5 -44.5q31 -8 60 12.5t55 59t48 90t40 105.5t31 106t20 92l264 -38q-2 -25 -7 -66.5t-8 -88.5t-2.5 -94.5t10.5 -86t31 -63t58 -24.5q33 0 57 22
t40.5 57.5t26.5 81t15 92.5t5 91.5t-3 78.5l270 38l33 -282q6 -46 26 -80t47 -56.5t57 -34t57 -11.5h32v-316h-32q-97 0 -183 34t-149 115q-6 -8 -12 -14t-11 -12v1q-54 -57 -124.5 -90.5t-151.5 -33.5q-91 0 -167.5 39t-127.5 106q-60 -66 -136 -107t-167 -41
q-85 0 -158 38t-121 104q-54 -75 -133.5 -107t-196.5 -32h-21v316h19zM597 682h-1q3 8 1 0z" />
    <glyph glyph-name="uni0634.fina" unicode="&#x634;" horiz-adv-x="2889" arabic-form="final" 
d="M2228 -58q-86 0 -144.5 33t-96.5 83q-21 -27 -45 -48.5t-56.5 -37t-76 -23.5t-103.5 -8q-42 0 -77 6t-64 15q-1 -117 -35.5 -213t-94 -172t-139.5 -132t-172 -92.5t-192.5 -54.5t-199.5 -18q-153 0 -283 50.5t-224.5 142t-147.5 220t-53 283.5q3 90 24.5 184t55 184
t75 171.5t84.5 146.5l218 -167q-36 -59 -69 -125t-57.5 -133.5t-39.5 -135.5t-15 -131q-3 -76 29.5 -143.5t91 -118t137.5 -80t170 -29.5q69 0 137.5 9.5t131 31t116.5 55t93.5 81.5t62 111.5t22.5 144.5q0 60 -18 125.5t-47.5 134t-67 139.5t-77.5 142l277 148
q36 -86 75 -169t81 -148.5t87 -105t93 -37.5q40 1 63.5 22t36.5 55t17 78t4 92l-6 173l284 39q0 -28 2.5 -73.5t9 -97.5t18 -105t29.5 -95.5t43 -69.5t59 -27q33 0 58.5 30.5t43 78.5t26 106.5t8.5 114.5q0 22 -0.5 31.5t-0.5 17t-0.5 18t-0.5 34.5l271 39q4 -55 7 -90
t6 -63.5t7.5 -58t12.5 -73.5q9 -46 27 -80t43 -56.5t55 -33.5t62 -11h30v-316l-20 -1q-112 0 -197 35.5t-145 113.5q-54 -69 -135 -107.5t-184 -38.5zM1934 1107l-188 -188l-194 193l192 193l190 -190l188 188l194 -193l-192 -193zM2113 1399l-178 -178l-179 179l178 178z
" />
    <glyph glyph-name="uni0634.init" unicode="&#x634;" horiz-adv-x="1658" arabic-form="initial" 
d="M0 256q75 0 126.5 40.5t88 106.5t62 150.5t48.5 172.5l266 -48q-8 -35 -19.5 -81.5t-21 -96.5t-15.5 -97.5t-2.5 -83.5t18.5 -56.5t46 -15.5q40 3 72.5 28t58.5 64t46 88t34.5 101t24 103t15.5 93l254 -43q-1 -30 -7 -74t-11 -92.5t-5 -97t11 -87t36.5 -62.5t71.5 -24
q28 0 57 9.5t52 27t37.5 41.5t14.5 54q0 52 -17 114.5t-41.5 124t-50.5 116.5t-44 93l248 139l21 -46q15 -32 34 -78t39.5 -103.5t37.5 -119.5t28 -127t11 -126q0 -100 -27.5 -180t-83 -136t-139 -87t-195.5 -32q-54 0 -98 10.5t-79.5 28.5t-62.5 43t-48 54
q-24 -31 -51.5 -55.5t-63 -42t-79.5 -27.5t-100 -11q-49 -1 -88.5 8.5t-72.5 27.5t-59.5 43.5t-49.5 56.5q-21 -26 -48 -48.5t-64 -39.5t-86 -26.5t-114 -9.5h-36v316h20zM918 1200l-188 -188l-194 193l192 193l190 -190l188 188l194 -193l-192 -193zM1097 1492l-178 -178
l-179 179l178 178z" />
    <glyph glyph-name="uni0634.medi" unicode="&#x634;" horiz-adv-x="1851" arabic-form="medial" 
d="M-1 256q53 0 99 17.5t87 67.5t77 141t69 238l265 -38q-1 -5 -3 -13q-6 -25 -14.5 -70.5t-16 -102t-7 -108t12 -89t40.5 -44.5q31 -8 60 12.5t55 59t48 90t40 105.5t31 106t20 92l264 -38q-2 -25 -7 -66.5t-8 -88.5t-2.5 -94.5t10.5 -86t31 -63t58 -24.5q33 0 57 22
t40.5 57.5t26.5 81t15 92.5t5 91.5t-3 78.5l270 38l33 -282q6 -46 26 -80t47 -56.5t57 -34t57 -11.5h32v-316h-32q-97 0 -183 34t-149 115q-6 -8 -12 -14t-11 -12v1q-54 -57 -124.5 -90.5t-151.5 -33.5q-91 0 -167.5 39t-127.5 106q-60 -66 -136 -107t-167 -41
q-85 0 -158 38t-121 104q-54 -75 -133.5 -107t-196.5 -32h-21v316h19zM597 682h-1q3 8 1 0zM998 1107l-188 -188l-194 193l192 193l190 -190l188 188l194 -193l-192 -193zM1177 1399l-178 -178l-179 179l178 178z" />
    <glyph glyph-name="uni0635.fina" unicode="&#x635;" horiz-adv-x="2868" arabic-form="final" 
d="M795 -709q-103 0 -204.5 17t-191.5 56t-163.5 103.5t-120.5 159.5q-17 34 -31.5 73t-25.5 79.5t-17 82t-6 80.5q0 72 12.5 145t32.5 143t45.5 135t50.5 121t48 101t39 76l224 -162q-7 -9 -23 -38.5t-35.5 -73t-40.5 -98t-38.5 -113.5t-28.5 -120t-11 -118
q0 -91 42.5 -154t111 -102t153 -56.5t168.5 -17.5q97 0 186 27t157.5 81t109 135t40.5 189q0 48 -16 113.5t-41.5 139.5t-56.5 152t-60 150l281 154q30 -74 52 -129.5t40 -97.5t35 -71.5t38 -50.5q32 57 76.5 116.5t100 116.5t122.5 107t144.5 89t164.5 62.5t184 26.5
t185.5 -30.5t156 -93.5t107.5 -143t40 -179q0 -105 -47 -210q15 -3 36.5 -5.5t41.5 -2.5h26v-316h-20q-56 0 -102.5 7.5t-85 20t-68.5 29t-51 33.5q-57 -32 -120.5 -55.5t-129 -38.5t-130.5 -22.5t-125 -7.5q-81 0 -149.5 6.5t-128 20t-113.5 33.5t-107 47
q-3 -157 -60.5 -289.5t-158 -228.5t-239.5 -150t-305 -54zM2286 593q-38 -6 -83 -23t-93.5 -42t-96.5 -56.5t-90.5 -66.5t-77.5 -72.5t-56 -74.5q26 -7 61 -13.5t72.5 -11.5t74 -8t66.5 -3q40 0 93 4.5t109.5 15t111 28t98.5 43.5t72.5 62t31.5 83q2 41 -24.5 70.5t-69 47
t-95.5 22t-104 -4.5z" />
    <glyph glyph-name="uni0635.init" unicode="&#x635;" horiz-adv-x="1920" arabic-form="initial" 
d="M0 256q49 0 84 7t58.5 17.5t37.5 23t22 23.5l-1 -1q14 21 28 48.5t30.5 73.5t36 116.5t44.5 176.5l262 -85q-10 -38 -19 -72.5t-12.5 -67.5t-0.5 -66t17 -69q42 70 88 138.5t99.5 130t115.5 114.5t136.5 91.5t162.5 61t194 23.5q122 1 215 -40.5t155.5 -109t92.5 -152.5
t26 -171q-6 -108 -49 -190.5t-112 -143.5t-157.5 -101.5t-186 -65.5t-198 -35.5t-193.5 -10.5q-98 0 -176 6t-145.5 23.5t-127 49t-119.5 82.5q-72 -72 -169 -106t-230 -35h-29v316h20zM1379 622q-64 0 -125.5 -17.5t-117 -46.5t-105 -67t-90.5 -79t-72.5 -82t-51.5 -77
q39 -2 88 -3t95 -1q62 0 128.5 3.5t131 13t124 26.5t108 43.5t83 63.5t48.5 87q-10 70 -74 103t-170 33z" />
    <glyph glyph-name="uni0635.medi" unicode="&#x635;" horiz-adv-x="1933" arabic-form="medial" 
d="M0 256q49 0 84 7t58.5 17.5t37.5 23t22 23.5l-1 -1q14 21 28 48.5t30.5 73.5t36 116.5t44.5 176.5l262 -85q-10 -38 -19 -72.5t-12.5 -67.5t-0.5 -66t17 -69q42 70 88 138.5t99.5 130t115.5 114.5t136.5 91.5t163 61t193.5 23.5q122 1 215 -40.5t155.5 -109t92.5 -152.5
t26 -171q-4 -61 -19.5 -113.5t-41.5 -97.5h142v-316h-313q-53 0 -93.5 1t-73.5 3.5t-59 7.5t-48 14q-98 -25 -197.5 -35.5t-192.5 -10.5q-98 0 -176 6t-145.5 23.5t-127 49t-119.5 82.5q-72 -72 -169 -106t-230 -35h-29v316h20zM1379 622q-64 0 -125.5 -17.5t-117 -46.5
t-105 -67t-90.5 -79t-72.5 -82t-51.5 -77q39 -2 88 -3t95 -1q62 0 128.5 3.5t131 13t124 26.5t108 43.5t83 63.5t48.5 87q-10 70 -74 103t-170 33z" />
    <glyph glyph-name="uni0636.fina" unicode="&#x636;" horiz-adv-x="2868" arabic-form="final" 
d="M795 -709q-103 0 -204.5 17t-191.5 56t-163.5 103.5t-120.5 159.5q-17 34 -31.5 73t-25.5 79.5t-17 82t-6 80.5q0 72 12.5 145t32.5 143t45.5 135t50.5 121t48 101t39 76l224 -162q-7 -9 -23 -38.5t-35.5 -73t-40.5 -98t-38.5 -113.5t-28.5 -120t-11 -118
q0 -91 42.5 -154t111 -102t153 -56.5t168.5 -17.5q97 0 186 27t157.5 81t109 135t40.5 189q0 48 -16 113.5t-41.5 139.5t-56.5 152t-60 150l281 154q30 -74 52 -129.5t40 -97.5t35 -71.5t38 -50.5q32 57 76.5 116.5t100 116.5t122.5 107t144.5 89t164.5 62.5t184 26.5
t185.5 -30.5t156 -93.5t107.5 -143t40 -179q0 -105 -47 -210q15 -3 36.5 -5.5t41.5 -2.5h26v-316h-20q-56 0 -102.5 7.5t-85 20t-68.5 29t-51 33.5q-57 -32 -120.5 -55.5t-129 -38.5t-130.5 -22.5t-125 -7.5q-81 0 -149.5 6.5t-128 20t-113.5 33.5t-107 47
q-3 -157 -60.5 -289.5t-158 -228.5t-239.5 -150t-305 -54zM2286 593q-38 -6 -83 -23t-93.5 -42t-96.5 -56.5t-90.5 -66.5t-77.5 -72.5t-56 -74.5q26 -7 61 -13.5t72.5 -11.5t74 -8t66.5 -3q40 0 93 4.5t109.5 15t111 28t98.5 43.5t72.5 62t31.5 83q2 41 -24.5 70.5t-69 47
t-95.5 22t-104 -4.5zM2306 1064l-222 222l222 222l222 -222z" />
    <glyph glyph-name="uni0636.init" unicode="&#x636;" horiz-adv-x="1913" arabic-form="initial" 
d="M0 256q49 0 84 7t58.5 17.5t37.5 23t22 23.5l-1 -1q14 21 28 48.5t30.5 73.5t36 116.5t44.5 176.5l262 -85q-10 -38 -19 -72.5t-12.5 -67.5t-0.5 -66t17 -69q42 70 88 138.5t99.5 130t115.5 114.5t136.5 91.5t162.5 61t194 23.5q122 1 215 -40.5t155.5 -109t92.5 -152.5
t26 -171q-6 -108 -49 -190.5t-112 -143.5t-157.5 -101.5t-186 -65.5t-198 -35.5t-193.5 -10.5q-98 0 -176 6t-145.5 23.5t-127 49t-119.5 82.5q-72 -72 -169 -106t-230 -35h-29v316h20zM1379 622q-64 0 -125.5 -17.5t-117 -46.5t-105 -67t-90.5 -79t-72.5 -82t-51.5 -77
q39 -2 88 -3t95 -1q62 0 128.5 3.5t131 13t124 26.5t108 43.5t83 63.5t48.5 87q-10 70 -74 103t-170 33zM1379 1064l-222 222l222 222l222 -222z" />
    <glyph glyph-name="uni0636.medi" unicode="&#x636;" horiz-adv-x="1933" arabic-form="medial" 
d="M0 256q49 0 84 7t58.5 17.5t37.5 23t22 23.5l-1 -1q14 21 28 48.5t30.5 73.5t36 116.5t44.5 176.5l262 -85q-10 -38 -19 -72.5t-12.5 -67.5t-0.5 -66t17 -69q42 70 88 138.5t99.5 130t115.5 114.5t136.5 91.5t163 61t193.5 23.5q122 1 215 -40.5t155.5 -109t92.5 -152.5
t26 -171q-4 -61 -19.5 -113.5t-41.5 -97.5h142v-316h-313q-53 0 -93.5 1t-73.5 3.5t-59 7.5t-48 14q-98 -25 -197.5 -35.5t-192.5 -10.5q-98 0 -176 6t-145.5 23.5t-127 49t-119.5 82.5q-72 -72 -169 -106t-230 -35h-29v316h20zM1379 622q-64 0 -125.5 -17.5t-117 -46.5
t-105 -67t-90.5 -79t-72.5 -82t-51.5 -77q39 -2 88 -3t95 -1q62 0 128.5 3.5t131 13t124 26.5t108 43.5t83 63.5t48.5 87q-10 70 -74 103t-170 33zM1370 1064l-222 222l222 222l222 -222z" />
    <glyph glyph-name="uni0637.fina" unicode="&#x637;" horiz-adv-x="1867" arabic-form="final" 
d="M866 -60q-113 0 -218.5 7.5t-208 26.5t-205 52.5t-210.5 85.5l115 295q168 -64 266 -93q19 26 42.5 57.5t57.5 76.5q6 45 10.5 82.5t7 71.5t4 66t1.5 66q0 46 -4 117t-9.5 151.5t-13 163t-14 152.5t-12.5 119t-9 63l317 84l11 -106q8 -72 16.5 -154.5t15.5 -169.5
t12.5 -177t7.5 -177q48 42 94.5 77t98 60.5t112 40.5t136.5 17q79 2 156.5 -22.5t140.5 -72.5t106 -119.5t53 -162.5q1 -112 -28.5 -201.5t-80.5 -160.5h253l-1 -316h-302q-79 0 -174.5 6.5t-213.5 36.5q-85 -23 -168.5 -33t-161.5 -10zM1287 674q-60 0 -135.5 -31
t-154.5 -87t-155.5 -134t-139.5 -172q35 -3 73 -4.5t70 -1.5q150 0 270.5 30.5t205 77.5t129 103t41.5 107q-5 30 -28.5 51.5t-55 35t-64.5 19.5t-56 6z" />
    <glyph glyph-name="uni0637.init" unicode="&#x637;" horiz-adv-x="1576" arabic-form="initial" 
d="M-20 256h133q17 29 47 78t78 109q8 63 14 154.5t7 200.5q0 60 -4 136.5t-11.5 166.5t-18.5 191t-24 210l322 82q14 -103 25 -199t18.5 -192t11.5 -194.5t4 -205.5q52 41 107.5 77.5t115 63.5t123.5 42.5t135 15.5q82 0 155 -26t129.5 -75t93 -119t45.5 -158
q5 -120 -29 -217t-96.5 -172t-149 -129t-187 -89t-209.5 -51.5t-217 -16.5l-592 1h-26v316zM1032 672q-60 1 -135.5 -28.5t-154.5 -84.5t-155.5 -132t-139.5 -171q35 -3 73 -4.5t70 -1.5q150 0 270.5 29.5t205 75t129 100t41.5 105.5q-5 30 -25.5 51t-49.5 34t-63 19.5
t-66 7.5z" />
    <glyph glyph-name="uni0637.medi" unicode="&#x637;" horiz-adv-x="1583" arabic-form="medial" 
d="M-20 256h133q17 29 47 78t78 109q8 63 14 154.5t7 200.5q0 60 -4 136.5t-11.5 166.5t-18.5 191t-24 210l322 82q14 -103 25 -199t18.5 -192t11.5 -194.5t4 -205.5q52 41 107.5 77.5t115 63.5t123.5 42.5t135 15.5q82 0 155 -26t129.5 -75t93 -119t45.5 -158
q5 -109 -22.5 -197.5t-79.5 -160.5h219l-1 -316h-265q-79 0 -175.5 6.5t-214.5 36.5l1 1q-85 -23 -173.5 -34t-176.5 -11l-592 1h-26v316zM1032 672q-60 1 -135.5 -28.5t-154.5 -84.5t-155.5 -132t-139.5 -171q35 -3 73 -4.5t70 -1.5q150 0 270.5 29.5t205 75t129 100
t41.5 105.5q-5 30 -25.5 51t-49.5 34t-63 19.5t-66 7.5z" />
    <glyph glyph-name="uni0638.fina" unicode="&#x638;" horiz-adv-x="1867" arabic-form="final" 
d="M866 -60q-113 0 -218.5 7.5t-208 26.5t-205 52.5t-210.5 85.5l115 295q168 -64 266 -93q19 26 42.5 57.5t57.5 76.5q6 45 10.5 82.5t7 71.5t4 66t1.5 66q0 46 -4 117t-9.5 151.5t-13 163t-14 152.5t-12.5 119t-9 63l317 84l11 -106q8 -72 16.5 -154.5t15.5 -169.5
t12.5 -177t7.5 -177q48 42 94.5 77t98 60.5t112 40.5t136.5 17q79 2 156.5 -22.5t140.5 -72.5t106 -119.5t53 -162.5q1 -112 -28.5 -201.5t-80.5 -160.5h253l-1 -316h-302q-79 0 -174.5 6.5t-213.5 36.5q-85 -23 -168.5 -33t-161.5 -10zM1287 674q-60 0 -135.5 -31
t-154.5 -87t-155.5 -134t-139.5 -172q35 -3 73 -4.5t70 -1.5q150 0 270.5 30.5t205 77.5t129 103t41.5 107q-5 30 -28.5 51.5t-55 35t-64.5 19.5t-56 6zM1321 1212l-222 222l222 222l222 -222z" />
    <glyph glyph-name="uni0638.init" unicode="&#x638;" horiz-adv-x="1549" arabic-form="initial" 
d="M-20 256h133q17 29 47 78t78 109q8 63 14 154.5t7 200.5q0 60 -4 136.5t-11.5 166.5t-18.5 191t-24 210l322 82q14 -103 25 -199t18.5 -192t11.5 -194.5t4 -205.5q52 41 107.5 77.5t115 63.5t123.5 42.5t135 15.5q82 0 155 -26t129.5 -75t93 -119t45.5 -158
q5 -120 -29 -217t-96.5 -172t-149 -129t-187 -89t-209.5 -51.5t-217 -16.5l-592 1h-26v316zM1032 672q-60 1 -135.5 -28.5t-154.5 -84.5t-155.5 -132t-139.5 -171q35 -3 73 -4.5t70 -1.5q150 0 270.5 29.5t205 75t129 100t41.5 105.5q-5 30 -25.5 51t-49.5 34t-63 19.5
t-66 7.5zM1088 1212l-222 222l222 222l222 -222z" />
    <glyph glyph-name="uni0638.medi" unicode="&#x638;" horiz-adv-x="1583" arabic-form="medial" 
d="M-20 256h133q17 29 47 78t78 109q8 63 14 154.5t7 200.5q0 60 -4 136.5t-11.5 166.5t-18.5 191t-24 210l322 82q14 -103 25 -199t18.5 -192t11.5 -194.5t4 -205.5q52 41 107.5 77.5t115 63.5t123.5 42.5t135 15.5q82 0 155 -26t129.5 -75t93 -119t45.5 -158
q5 -109 -22.5 -197.5t-79.5 -160.5h219l-1 -316h-265q-79 0 -175.5 6.5t-214.5 36.5l1 1q-85 -23 -173.5 -34t-176.5 -11l-592 1h-26v316zM1032 672q-60 1 -135.5 -28.5t-154.5 -84.5t-155.5 -132t-139.5 -171q35 -3 73 -4.5t70 -1.5q150 0 270.5 29.5t205 75t129 100
t41.5 105.5q-5 30 -25.5 51t-49.5 34t-63 19.5t-66 7.5zM1088 1212l-222 222l222 222l222 -222z" />
    <glyph glyph-name="uni0639.fina" unicode="&#x639;" horiz-adv-x="1357" arabic-form="final" 
d="M294 -218q0 -54 22.5 -99t60.5 -80.5t88 -62t105 -44t111.5 -26t107.5 -8.5q115 0 227 37.5t206 100.5l155 -249q-56 -46 -130.5 -84t-156.5 -65t-165.5 -41.5t-158.5 -13.5q-64 1 -144 12t-162 38t-160 72.5t-139 115.5t-98.5 168t-38.5 229q-1 102 32 193t91.5 169
t137 142t168.5 112q-18 16 -38 33.5t-45 38.5t-56 47t-71 61l-21 241q85 68 160 115t149 76.5t152 42.5t169 13q53 0 109 -9t109 -27t100.5 -46t82.5 -66t54.5 -86t18.5 -107q-2 -63 -22 -121.5t-56 -110t-85 -94t-107 -72.5q72 -33 143 -52t143 -19h35v-316l-35 -1
q-84 0 -162.5 17t-155 48t-151.5 74t-151 95q-46 -19 -95 -41.5t-96.5 -50t-90.5 -59t-75.5 -69t-51.5 -80t-19 -91.5zM854 782q-51 1 -101.5 -6t-96 -18.5t-84.5 -25.5t-68 -26q58 -48 121.5 -94t133.5 -86q58 19 111.5 43t94.5 50.5t66 54.5t27 57q-2 1 -15.5 8.5
t-39 16.5t-63 17t-86.5 9z" />
    <glyph glyph-name="uni0639.init" unicode="&#x639;" horiz-adv-x="1138" arabic-form="initial" 
d="M919 601q-26 14 -52.5 25.5t-54.5 21.5q-48 17 -107 28t-122 4q-43 -5 -82.5 -23t-70 -44.5t-48.5 -59.5t-18 -67q0 -48 30 -84.5t76.5 -60.5t102.5 -36t109 -10q57 5 118.5 14t115.5 19q31 5 62 11t62 13l41 -311q-67 -18 -163.5 -36t-217.5 -32.5t-264 -23.5t-303 -9
h-153v316h36l139 2q-36 57 -50 116.5t-13 129.5q1 88 39.5 173t105 153t155.5 113t191 53q51 4 98 -0.5t89 -15t79 -25t67 -30.5q35 -19 67 -40.5t60 -46.5l-124 -237v0z" />
    <glyph glyph-name="uni0639.medi" unicode="&#x639;" horiz-adv-x="1144" arabic-form="medial" 
d="M1164 256v-316l-34 -1q-79 0 -151.5 5t-139 19t-126 39.5t-112.5 66.5q-59 -36 -130.5 -60.5t-148 -40t-154.5 -22t-150 -6.5h-38v316h38q70 0 142 7.5t141 23.5q-34 33 -66 65.5t-64.5 65.5t-67.5 67t-76 72l16 234q59 52 122 88.5t124.5 60.5t118 37t101.5 18
q22 2 47 3.5t49 1.5q78 0 160.5 -16t149.5 -44q58 -27 97 -61t62 -68t33.5 -66t11.5 -54q3 -45 -12 -98.5t-43.5 -109t-67.5 -109t-84 -98.5q55 -10 105.5 -15t112.5 -5h34zM605 689q-24 0 -61 -3.5t-76.5 -9.5t-77.5 -14t-64 -17l275 -235q29 21 66.5 52t73.5 64.5
t65.5 66.5t43.5 58q-23 10 -54 17.5t-64.5 12t-66.5 6.5t-60 2z" />
    <glyph glyph-name="uni063A.fina" unicode="&#x63a;" horiz-adv-x="1357" arabic-form="final" 
d="M294 -218q0 -54 22.5 -99t60.5 -80.5t88 -62t105 -44t111.5 -26t107.5 -8.5q115 0 227 37.5t206 100.5l155 -249q-56 -46 -130.5 -84t-156.5 -65t-165.5 -41.5t-158.5 -13.5q-64 1 -144 12t-162 38t-160 72.5t-139 115.5t-98.5 168t-38.5 229q-1 102 32 193t91.5 169
t137 142t168.5 112q-18 16 -38 33.5t-45 38.5t-56 47t-71 61l-21 241q85 68 160 115t149 76.5t152 42.5t169 13q53 0 109 -9t109 -27t100.5 -46t82.5 -66t54.5 -86t18.5 -107q-2 -63 -22 -121.5t-56 -110t-85 -94t-107 -72.5q72 -33 143 -52t143 -19h35v-316l-35 -1
q-84 0 -162.5 17t-155 48t-151.5 74t-151 95q-46 -19 -95 -41.5t-96.5 -50t-90.5 -59t-75.5 -69t-51.5 -80t-19 -91.5zM854 782q-51 1 -101.5 -6t-96 -18.5t-84.5 -25.5t-68 -26q58 -48 121.5 -94t133.5 -86q58 19 111.5 43t94.5 50.5t66 54.5t27 57q-2 1 -15.5 8.5
t-39 16.5t-63 17t-86.5 9zM798 1209l-222 222l222 222l222 -222z" />
    <glyph glyph-name="uni063A.init" unicode="&#x63a;" horiz-adv-x="1112" arabic-form="initial" 
d="M919 601q-26 14 -52.5 25.5t-54.5 21.5q-48 17 -107 28t-122 4q-43 -5 -82.5 -23t-70 -44.5t-48.5 -59.5t-18 -67q0 -48 30 -84.5t76.5 -60.5t102.5 -36t109 -10q57 5 118.5 14t115.5 19q31 5 62 11t62 13l41 -311q-67 -18 -163.5 -36t-217.5 -32.5t-264 -23.5t-303 -9
h-153v316h36l139 2q-36 57 -50 116.5t-13 129.5q1 88 39.5 173t105 153t155.5 113t191 53q51 4 98 -0.5t89 -15t79 -25t67 -30.5q35 -19 67 -40.5t60 -46.5l-124 -237v0zM592 1119l-222 222l222 222l222 -222z" />
    <glyph glyph-name="uni063A.medi" unicode="&#x63a;" horiz-adv-x="1144" arabic-form="medial" 
d="M1164 256v-316l-34 -1q-79 0 -151.5 5t-139 19t-126 39.5t-112.5 66.5q-59 -36 -130.5 -60.5t-148 -40t-154.5 -22t-150 -6.5h-38v316h38q70 0 142 7.5t141 23.5q-34 33 -66 65.5t-64.5 65.5t-67.5 67t-76 72l16 234q59 52 122 88.5t124.5 60.5t118 37t101.5 18
q22 2 47 3.5t49 1.5q78 0 160.5 -16t149.5 -44q58 -27 97 -61t62 -68t33.5 -66t11.5 -54q3 -45 -12 -98.5t-43.5 -109t-67.5 -109t-84 -98.5q55 -10 105.5 -15t112.5 -5h34zM605 689q-24 0 -61 -3.5t-76.5 -9.5t-77.5 -14t-64 -17l275 -235q29 21 66.5 52t73.5 64.5
t65.5 66.5t43.5 58q-23 10 -54 17.5t-64.5 12t-66.5 6.5t-60 2zM619 1118l-222 222l222 222l222 -222z" />
    <glyph glyph-name="uni0641.fina" unicode="&#x641;" horiz-adv-x="2106" arabic-form="final" 
d="M963 -60q-89 0 -192.5 7.5t-206.5 29t-199.5 59.5t-171.5 99t-123 148t-54 207q0 59 13 114.5t34.5 108.5t49 104.5t56.5 103.5l235 -197q-15 -21 -35 -54.5t-38.5 -70.5t-31 -74.5t-12.5 -65.5q0 -37 26.5 -66.5t74 -52t112 -38.5t140 -26t159 -15t169.5 -5q39 0 84 0.5
t85 1.5t70.5 2t41.5 2q-36 40 -65 99t-33 134q-2 59 12.5 119.5t42.5 117.5t68 106.5t89 86t105.5 56t117.5 17.5q87 -4 162 -45t129.5 -106t86 -147.5t31.5 -169.5q0 -69 -23 -135.5t-58 -126.5q48 -5 93.5 -8.5t85.5 -3.5h33v-316h-28q-62 0 -127.5 2t-130.5 10.5
t-129 24.5t-124 44q-24 -14 -66 -25.5t-95.5 -20.5t-114 -15.5t-122 -11t-120 -6.5t-106.5 -2zM1730 507q0 32 -15.5 61t-38 52t-48.5 38.5t-47 21.5q-23 -5 -52.5 -18t-56 -36.5t-44.5 -57t-18 -79.5q0 -15 15.5 -41.5t40 -54t56 -51t64.5 -33.5q25 14 51 38.5t46.5 52
t33.5 56t13 51.5zM1627 1157l-222 222l222 222l222 -222z" />
    <glyph glyph-name="uni0641.init" unicode="&#x641;" horiz-adv-x="943" arabic-form="initial" 
d="M15 256q37 0 89.5 0.5t112 3t121.5 7.5t118.5 15t103.5 25t77 37q-131 -13 -240.5 -7t-189 42t-124 107.5t-45.5 191.5q0 55 11 113.5t33.5 115t55.5 107t76.5 88.5t97 60.5t116.5 22.5q79 0 144.5 -30t118 -81.5t92 -119.5t65.5 -143t39 -153t13 -150q0 -120 -33.5 -209
t-93.5 -152t-142.5 -103.5t-181 -63.5t-208.5 -31.5t-225 -8.5h-36v316h35zM426 867q-23 1 -47.5 -13.5t-44.5 -38.5t-33.5 -55t-13.5 -63q0 -30 18.5 -49t47.5 -30t65.5 -15.5t72 -5t66.5 1t50 3.5q-9 45 -23.5 91t-36.5 84t-52 63t-69 27zM420 1287l-222 222l222 222
l222 -222z" />
    <glyph glyph-name="uni0641.medi" unicode="&#x641;" horiz-adv-x="1001" arabic-form="medial" 
d="M-20 256h72q23 0 47 1.5t45 4t32 7.5q-18 20 -35 43.5t-30.5 51.5t-22.5 60.5t-11 70.5q-2 59 12.5 119.5t42.5 117.5t68 106.5t89 86t105.5 56t117.5 17.5q87 -4 162 -45t129.5 -106t86 -147.5t31.5 -169.5q0 -69 -23 -135.5t-58 -126.5q26 -6 64 -9t97 -3h20v-316h-39
q-65 0 -123.5 3.5t-115 12.5t-113 24.5t-117.5 40.5q-37 -21 -92.5 -36.5t-121.5 -25t-138 -14.5t-142 -5h-39v316zM656 507q0 32 -15.5 61t-38 52t-48.5 38.5t-47 21.5q-23 -5 -52.5 -18t-56 -36.5t-44.5 -57t-18 -79.5q0 -15 15.5 -41.5t40 -54t56 -51t64.5 -33.5
q25 14 51 38.5t46.5 52t33.5 56t13 51.5zM493 1137l-222 222l222 222l222 -222z" />
    <glyph glyph-name="uni0642.fina" unicode="&#x642;" horiz-adv-x="1570" arabic-form="final" 
d="M775 -381q87 0 162.5 24t137 66.5t107.5 101.5t73 129q-159 1 -278 21.5t-199 68t-121.5 126t-45.5 195.5q0 54 13.5 116.5t39 124t63 118t84.5 99.5t104 69t122 26q79 0 144.5 -27.5t119 -75t94.5 -110.5t70.5 -135t48 -149t26.5 -151h50v-316h-61
q-25 -128 -93.5 -243.5t-169 -203.5t-227 -140t-268.5 -52q-152 0 -287.5 48.5t-237 139t-161 219t-59.5 289.5q0 75 7.5 143.5t24 136t43.5 137t66 146.5l252 -106q-39 -72 -63.5 -134.5t-38 -118t-18.5 -106t-5 -97.5q0 -89 40 -160t106.5 -120t153.5 -74.5t181 -24.5z
M1037 585q-29 3 -61 -17t-57.5 -54t-39 -76t-3.5 -82q9 -38 38.5 -58t80 -29.5t121 -11t161.5 -1.5q-3 42 -21 96.5t-49.5 104t-74.5 86t-95 42.5zM1020 1235l-188 -188l-194 193l192 193l190 -190l188 188l194 -193l-192 -193z" />
    <glyph glyph-name="uni0642.init" unicode="&#x642;" horiz-adv-x="943" arabic-form="initial" 
d="M15 256q37 0 89.5 0.5t112 3t121.5 7.5t118.5 15t103.5 25t77 37q-131 -13 -240.5 -7t-189 42t-124 107.5t-45.5 191.5q0 55 11 113.5t33.5 115t55.5 107t76.5 88.5t97 60.5t116.5 22.5q79 0 144.5 -30t118 -81.5t92 -119.5t65.5 -143t39 -153t13 -150q0 -120 -33.5 -209
t-93.5 -152t-142.5 -103.5t-181 -63.5t-208.5 -31.5t-225 -8.5h-36v316h35zM426 867q-23 1 -47.5 -13.5t-44.5 -38.5t-33.5 -55t-13.5 -63q0 -30 18.5 -49t47.5 -30t65.5 -15.5t72 -5t66.5 1t50 3.5q-9 45 -23.5 91t-36.5 84t-52 63t-69 27zM422 1475l-188 -188l-194 193
l192 193l190 -190l188 188l194 -193l-192 -193z" />
    <glyph glyph-name="uni0642.medi" unicode="&#x642;" horiz-adv-x="1001" arabic-form="medial" 
d="M-20 256h72q23 0 47 1.5t45 4t32 7.5q-18 20 -35 43.5t-30.5 51.5t-22.5 60.5t-11 70.5q-2 59 12.5 119.5t42.5 117.5t68 106.5t89 86t105.5 56t117.5 17.5q87 -4 162 -45t129.5 -106t86 -147.5t31.5 -169.5q0 -69 -23 -135.5t-58 -126.5q26 -6 64 -9t97 -3h20v-316h-39
q-65 0 -123.5 3.5t-115 12.5t-113 24.5t-117.5 40.5q-37 -21 -92.5 -36.5t-121.5 -25t-138 -14.5t-142 -5h-39v316zM656 507q0 32 -15.5 61t-38 52t-48.5 38.5t-47 21.5q-23 -5 -52.5 -18t-56 -36.5t-44.5 -57t-18 -79.5q0 -15 15.5 -41.5t40 -54t56 -51t64.5 -33.5
q25 14 51 38.5t46.5 52t33.5 56t13 51.5zM494 1307l-188 -188l-194 193l192 193l190 -190l188 188l194 -193l-192 -193z" />
    <glyph glyph-name="uni0643.fina" unicode="&#x643;" horiz-adv-x="2076" arabic-form="final" 
d="M1942 485q1 -30 4.5 -69.5t15.5 -75t36 -60t67 -24.5h31v-316h-34q-63 1 -113.5 12.5t-90 34.5t-69.5 58t-54 83q-75 -60 -160 -97.5t-180.5 -59t-201.5 -30.5t-222 -12q-188 2 -336.5 24t-260.5 64q-75 28 -141 71.5t-114.5 101.5t-76.5 130.5t-28 159.5q0 100 34.5 193
t86.5 182l233 -175q-34 -54 -57 -103.5t-23 -100.5q0 -72 55 -116.5t148.5 -69t217.5 -33.5t262 -9q307 0 485 67h-1q31 13 62.5 30t56.5 40.5t41 55t18 74.5q-3 989 -5 996l312 71zM1147 850q-24 4 -47.5 7t-49.5 3t-53 -9.5t-48 -25.5t-31 -38t-1 -47q7 -16 23.5 -30
t39 -23t49 -10.5t52.5 7.5q45 15 87 40.5t89 59.5l62 -146q-18 -11 -35 -22t-40.5 -25.5t-57 -34t-83.5 -48t-120 -67t-166 -90.5l-51 145l129 76q-29 21 -51.5 49t-36.5 60q-20 42 -17.5 88t22 88.5t53.5 77.5t77 53q59 25 122 20.5t128 -20.5z" />
    <glyph glyph-name="uni0643.init" unicode="&#x643;" horiz-adv-x="1023" arabic-form="initial" 
d="M-20 256h95q58 0 119 1t117 8.5t102.5 23.5t76 46t38.5 77t-11 116q-7 25 -30 60.5t-57.5 78t-79.5 89.5t-96 96.5t-107 99t-112 95.5l31 272l840 374l121 -268l-664 -308q49 -34 101 -81t101 -102.5t92 -117.5t75 -127t50.5 -131t17.5 -129q-1 -104 -39 -193.5
t-105 -155t-159.5 -103t-203.5 -37.5h-313v316z" />
    <glyph glyph-name="uni0643.medi" unicode="&#x643;" horiz-adv-x="1188" arabic-form="medial" 
d="M-20 256h327q51 0 95 12t77 31.5t53 44t23 49.5q5 50 -15 108t-57 118.5t-87 121t-104 115.5t-107.5 102t-98.5 81l27 275l919 385l116 -275l-759 -310q69 -64 124.5 -124.5t102 -121t85 -121t72.5 -124.5q30 -56 63 -118.5t76.5 -116t100.5 -90.5t133 -42h62v-316h-31
q-70 0 -133 9.5t-120 31t-108.5 56t-98.5 84.5q-36 -48 -83 -82t-99.5 -56t-108.5 -32t-110 -11h-336v316z" />
    <glyph glyph-name="uni0644.fina" unicode="&#x644;" horiz-adv-x="1532" arabic-form="final" 
d="M379 294q-42 -78 -69.5 -169t-22.5 -185q4 -69 38 -130.5t87 -108t120.5 -74t138.5 -27.5q43 0 92 9.5t98 29.5t94 50.5t80 74t55.5 99.5t20.5 126q0 79 -4.5 186.5t-11 229t-15.5 250.5t-18 252q-11 147 -22.5 294.5t-25.5 307.5l319 74q7 -171 13.5 -328t11.5 -312
q5 -131 9.5 -267t8.5 -264q4 -32 15.5 -60t31 -49.5t46.5 -34t63 -12.5h20v-316h-20q-38 0 -75 2.5t-74 17.5q-3 -127 -36.5 -226t-88 -174.5t-125 -128t-148 -85t-157 -47.5t-151.5 -15q-83 0 -165 20t-156 58t-137 93t-108.5 125.5t-71 155.5t-23.5 182q1 63 7.5 127
t19.5 127t34 124t52 118l250 -120v0z" />
    <glyph glyph-name="uni0644.init" unicode="&#x644;" horiz-adv-x="569" arabic-form="initial" 
d="M-20 256h76q51 0 83.5 9t51 31t25 59.5t5.5 94.5q0 8 -3 58.5t-7.5 127t-11 171t-13 191.5t-12.5 189t-11.5 162t-9.5 111q-3 36 -4 38l317 78q1 -16 6.5 -82t13.5 -198.5t18.5 -339t21.5 -502.5q4 -113 -23 -207.5t-86 -162.5t-149 -106t-212 -38h-76v316z" />
    <glyph glyph-name="uni0644.medi" unicode="&#x644;" horiz-adv-x="649" arabic-form="medial" 
d="M-20 256h65q45 0 76.5 14.5t52 41t30 62.5t9.5 79q1 59 1 143.5t-1 182t-3 202t-5 204t-6 189t-6 156.5l318 58l11 -1199q0 -62 31.5 -97.5t93.5 -35.5h22v-316h-22q-41 -1 -82.5 7t-78.5 22.5t-66 34.5t-45 43q-21 -26 -49 -46t-67.5 -33.5t-92.5 -20.5t-123 -7h-63v316
z" />
    <glyph glyph-name="uni0645.fina" unicode="&#x645;" horiz-adv-x="1244" arabic-form="final" 
d="M58 -796l-39 990q0 7 2 34.5t11.5 63.5t31 75t60.5 69q12 11 30.5 20t39.5 16t44 10.5t46 3.5h16q8 0 16 -1q29 74 71 149t97.5 135t125.5 97q69 37 154 35q99 0 167 -37.5t114 -100t74 -144.5t46 -172q17 -87 32.5 -139t35.5 -52h31v-316h-38q-59 2 -101 25.5t-80 70.5
q-24 -20 -53.5 -38.5t-58.5 -24.5q-30 -4 -74 0.5t-96 16t-109.5 28t-115.5 37t-113.5 43.5t-103.5 46q12 -219 25.5 -446.5t25.5 -444.5zM758 584q-35 -3 -63.5 -21.5t-52 -45.5t-41 -58.5t-29.5 -59.5q36 -22 83 -43t97.5 -37.5t99 -27.5t86.5 -12q-12 56 -26.5 112
t-35 100.5t-49.5 70.5t-69 22z" />
    <glyph glyph-name="uni0645.init" unicode="&#x645;" horiz-adv-x="1165" arabic-form="initial" 
d="M847 -57q-60 0 -124 12.5t-125.5 33.5t-118 48.5t-100.5 56.5q-33 -44 -70.5 -73.5t-80 -47.5t-92 -25.5t-106.5 -7.5h-50v316h50q66 0 111 27t77 69.5t56.5 94t50.5 100.5q30 61 67.5 122t86.5 110t110.5 79.5t138.5 30.5q105 0 180.5 -48.5t124.5 -127t72.5 -178
t23.5 -200.5q0 -85 -25 -157t-65 -124t-90.5 -81.5t-101.5 -29.5zM719 584q-29 0 -54 -22.5t-47 -55.5t-39.5 -72t-31.5 -72q33 -21 75 -39t87 -31.5t91 -22.5t88 -13q5 61 -6 120t-34.5 105t-56.5 74.5t-72 28.5z" />
    <glyph glyph-name="uni0645.medi" unicode="&#x645;" horiz-adv-x="1178" arabic-form="medial" 
d="M866 -57q-51 -3 -119.5 7.5t-140 31t-139.5 49.5t-118 63q-64 -79 -149 -116.5t-200 -37.5h-20v316h20q66 0 111 27t77.5 69t57 93.5t49.5 101.5q31 60 68.5 121t86.5 110t110 80t138 31q99 0 167 -35.5t114 -96t74 -140.5t46 -170q17 -88 32.5 -139.5t35.5 -51.5h31
v-316h-38q-59 0 -101.5 27.5t-77.5 66.5q-14 -15 -28.5 -31t-28.5 -29t-28.5 -21.5t-29.5 -9.5zM689 584q-29 0 -54 -20t-46 -50.5t-38 -67t-31 -69.5q34 -23 79 -43t93 -35t95 -25t86 -13q-13 55 -29 112.5t-37.5 104t-50 76.5t-67.5 30z" />
    <glyph glyph-name="uni0646.fina" unicode="&#x646;" horiz-adv-x="1711" arabic-form="final" 
d="M1697 -60q-23 0 -41.5 2t-36.5 5.5t-36.5 9t-40.5 12.5q0 -170 -62 -303.5t-169 -225t-251 -139.5t-310 -48q-167 0 -303 47t-232 136t-148 217.5t-52 290.5q0 86 12 163.5t37 155.5t62.5 160t88.5 177l225 -162q-29 -52 -56 -116.5t-47.5 -133t-33 -136.5t-12.5 -127
q0 -78 38 -143t100.5 -111.5t142.5 -73t165 -27.5q117 -2 214 18.5t167 65.5t108.5 116t38.5 171q0 58 -17 123.5t-44.5 136t-64 145t-75.5 152.5l273 173l101 -195q41 -83 76 -127.5t66.5 -65t60 -24t56.5 -3.5h32v-316h-32zM768 454l-222 222l222 222l222 -222z" />
    <glyph glyph-name="uni0646.init" unicode="&#x646;" horiz-adv-x="723" arabic-form="initial" 
d="M-20 256h135q42 0 92.5 7t94 22.5t73 42t29.5 65.5q0 24 -14 71.5t-37 106t-52 122.5t-58 122l286 142q28 -63 55.5 -134t49.5 -144t35.5 -145.5t13.5 -138.5q0 -120 -40 -206t-112 -141.5t-172 -81.5t-220 -26h-159v316zM299 1062l-222 222l222 222l222 -222z" />
    <glyph glyph-name="uni0646.medi" unicode="&#x646;" horiz-adv-x="705" arabic-form="medial" 
d="M725 256v-316h-22q-97 0 -164 27t-117 74q-72 -53 -169.5 -77t-235.5 -24h-37v316h37q138 0 208 45t70 135q0 30 -8 84.5t-33 143.5l283 69q16 -55 26.5 -97.5t16.5 -77.5t9 -64.5t5 -57.5t6 -59.5t15.5 -58.5t32 -44.5t55.5 -17.5h22zM298 893l-222 222l222 222
l222 -222z" />
    <glyph glyph-name="uni0647.fina" unicode="&#x647;" horiz-adv-x="1090" arabic-form="final" 
d="M544 80q-98 0 -184 20t-150 62t-101 107t-37 156q0 69 25.5 130.5t67 115t94 98t106 79.5t103 59t86.5 37q-1 12 -2 24.5t-2 30.5t-3 42t-5 59l312 67q21 -188 40 -343t33.5 -267t24 -176t11.5 -68q15 -32 44.5 -44.5t80.5 -12.5h22v-316h-29q-42 0 -97 7.5t-115 35.5
q-42 20 -73.5 45.5t-60.5 64.5q-51 -7 -98.5 -10t-92.5 -3zM538 394q21 0 43.5 1.5t43.5 3.5q-3 17 -5.5 37.5t-6 50t-8.5 70.5t-11 100q-38 -19 -85 -45.5t-88.5 -56t-69.5 -60t-28 -56.5q0 -13 22.5 -21.5t55.5 -14t70 -7.5t67 -2z" />
    <glyph glyph-name="uni0647.init" unicode="&#x647;" horiz-adv-x="1522" arabic-form="initial" 
d="M-20 256h62q11 0 25.5 1t36 2t58.5 3q-35 60 -53 127.5t-18 136.5q0 106 40 203.5t121 167.5l-52 29l193 284q127 -66 249.5 -125t234.5 -110q95 -44 168.5 -77.5t132.5 -66t106 -68.5t88 -84q52 -66 75 -144t23 -151q0 -112 -57.5 -211.5t-169.5 -166.5
q-31 -18 -76.5 -31t-95 -21.5t-97.5 -12.5t-84 -4q-42 0 -91 3.5t-98.5 11t-96.5 19.5t-86 28q-48 -14 -107.5 -25t-125 -18.5t-134 -11.5t-134.5 -4h-37v316zM559 746q-32 5 -68.5 -19t-66.5 -62t-48 -83.5t-14 -84.5q3 -26 20 -53t40.5 -52.5t50.5 -45t50 -28.5
q37 4 74 18t66 42t47 72t18 108q0 33 -18.5 65t-44.5 58.5t-55.5 44t-50.5 20.5zM991 600q0 -50 -10 -99.5t-27 -97t-38.5 -90t-45.5 -78.5h9q74 0 135 5.5t106 22t71.5 46t31.5 78.5q2 24 -20 52.5t-56.5 57t-76.5 55.5t-79 48z" />
    <glyph glyph-name="uni0647.medi" unicode="&#x647;" horiz-adv-x="1035" arabic-form="medial" 
d="M-20 256h71q3 66 20.5 143.5t47.5 156t71 152t90.5 131.5t107.5 94.5t121 40.5q67 -1 124 -37.5t97.5 -95.5t63.5 -134t23 -152q0 -91 -39 -177t-102 -160.5t-143.5 -134t-164.5 -97.5q7 -24 29.5 -57.5t51 -67.5t57.5 -64t49 -48q-1 58 17 118.5t50.5 116.5t76.5 105.5
t94.5 86.5t104.5 58.5t107 21.5h50v-316h-54q-44 0 -85 -23t-72.5 -59.5t-50.5 -82.5t-19 -91q0 -20 3 -37.5t11 -35.5t21.5 -38t34.5 -43l-183 -223q-120 73 -211 149t-157.5 155.5t-112 161.5t-74.5 167h-126v316zM569 511q2 28 -0.5 59.5t-10 61t-20.5 53.5t-32 36
q-19 -10 -41.5 -38.5t-45.5 -68t-44.5 -87t-38.5 -96.5t-27.5 -95.5t-11.5 -83.5q43 8 89.5 32.5t86 60t66.5 78.5t30 88z" />
    <glyph glyph-name="uni0648.fina" unicode="&#x648;" horiz-adv-x="1043" arabic-form="final" 
d="M28 -457q141 28 257 70.5t203.5 95t145 111.5t81.5 120q-43 0 -91 1.5t-79 3.5q-99 8 -180 37.5t-139.5 81t-90.5 125.5t-32 170q0 61 13 125t37.5 125t61 115t82.5 95t101.5 64.5t119.5 23.5q76 0 140 -27.5t117.5 -74.5t95 -110.5t72 -136t50 -150t27.5 -152.5h43v-316
h-64q-39 -147 -124.5 -266.5t-204.5 -208.5t-264.5 -147t-303.5 -82zM518 590q-21 4 -48 -14.5t-50 -50t-39 -69.5t-15 -73q1 -34 22 -56t54 -36.5t74.5 -21.5t82.5 -10t77 -3h62q-15 62 -35.5 119t-47.5 102t-61 75t-76 38z" />
    <glyph glyph-name="uni0649.fina" unicode="&#x649;" horiz-adv-x="1715" arabic-form="final" 
d="M830 -712q-108 0 -209 15.5t-189 48.5t-160.5 85t-124.5 125.5t-80.5 170t-28.5 218.5q0 88 7.5 167.5t23.5 157.5t41.5 158t61.5 170l257 -107q-29 -72 -49.5 -130t-34.5 -105.5t-22 -87.5t-12 -76.5t-5 -72t-1 -74.5q0 -75 24 -130t65 -93t94.5 -62.5t111.5 -37.5
t117.5 -18t112.5 -5q26 0 77 3.5t111.5 12t124 22.5t115.5 34.5t85 48t33 64.5q-72 54 -197 97t-306 65l41 304h821v-316h-130q21 -40 30.5 -80.5t10.5 -69.5q-5 -94 -47.5 -167.5t-109.5 -129.5t-152 -95t-174 -63.5t-175.5 -35.5t-157.5 -11z" />
    <glyph glyph-name="uni064A.fina" unicode="&#x64a;" horiz-adv-x="1715" arabic-form="final" 
d="M830 -712q-108 0 -209 15.5t-189 48.5t-160.5 85t-124.5 125.5t-80.5 170t-28.5 218.5q0 88 7.5 167.5t23.5 157.5t41.5 158t61.5 170l257 -107q-29 -72 -49.5 -130t-34.5 -105.5t-22 -87.5t-12 -76.5t-5 -72t-1 -74.5q0 -75 24 -130t65 -93t94.5 -62.5t111.5 -37.5
t117.5 -18t112.5 -5q26 0 77 3.5t111.5 12t124 22.5t115.5 34.5t85 48t33 64.5q-72 54 -197 97t-306 65l41 304h821v-316h-130q21 -40 30.5 -80.5t10.5 -69.5q-5 -94 -47.5 -167.5t-109.5 -129.5t-152 -95t-174 -63.5t-175.5 -35.5t-157.5 -11zM798 -984l-188 -188l-194 193
l192 193l190 -190l188 188l194 -193l-192 -193z" />
    <glyph glyph-name="uni064A.init" unicode="&#x64a;" horiz-adv-x="838" arabic-form="initial" 
d="M-20 256h240q43 0 95 4.5t97.5 18.5t76 41.5t30.5 72.5q0 24 -14.5 71.5t-38 106t-53 122.5t-58.5 122l286 142q28 -63 55.5 -134t49.5 -144t35.5 -145.5t13.5 -138.5q0 -124 -45.5 -210.5t-123.5 -141t-183 -79t-225 -24.5h-238v316zM368 -353l-188 -188l-194 193
l192 193l190 -190l188 188l194 -193l-192 -193z" />
    <glyph glyph-name="uni064A.medi" unicode="&#x64a;" horiz-adv-x="852" arabic-form="medial" 
d="M872 256v-316h-23q-48 0 -94.5 8t-87.5 22.5t-75.5 34.5t-59.5 43q-47 -36 -107.5 -57t-128 -32.5t-139 -15t-140.5 -3.5h-37v316h37q72 0 128.5 4t99 14t71.5 26.5t47 41.5q23 32 28.5 71t1 80.5t-15.5 83t-20 79.5l291 83q12 -45 20.5 -82t15 -72t11.5 -71t11 -78
q4 -27 10.5 -58.5t21.5 -58.5t41.5 -45t69.5 -18h23zM382 -353l-188 -188l-194 193l192 193l190 -190l188 188l194 -193l-192 -193z" />
    <glyph glyph-name=".notdef" horiz-adv-x="1229" 
d="M102 -362v1806h1024v-1806h-1024zM217 -248h795v1577h-795v-1577z" />
    <glyph glyph-name=".null" 
 />
    <glyph glyph-name="nonmarkingreturn" horiz-adv-x="602" 
 />
    <glyph glyph-name="NULL" unicode="&#xfeff;" 
 />
    <glyph glyph-name="NULL" 
 />
    <glyph glyph-name="space" unicode=" " horiz-adv-x="696" 
 />
    <glyph glyph-name="space" unicode="&#xa0;" horiz-adv-x="696" 
 />
    <glyph glyph-name="exclam" unicode="!" horiz-adv-x="617" 
d="M187 398l-61 755v419h345v-419l-45 -755h-239zM303 290l222 -222l-222 -222l-222 222z" />
    <glyph glyph-name="quotedbl" unicode="&#x22;" horiz-adv-x="738" 
d="M299 1570l-45 -462h-182v617h227v-155zM664 1570l-44 -462h-182v617h226v-155z" />
    <glyph glyph-name="numbersign" unicode="#" horiz-adv-x="1370" 
d="M749 460h-217l-81 -460h-205l81 460h-255v194h288l57 319h-261v195h295l82 467h205l-82 -467h218l82 467h205l-82 -467h246v-195h-281l-56 -319h252v-194h-285l-81 -460h-206zM566 654h217l56 319h-218z" />
    <glyph glyph-name="dollar" unicode="$" horiz-adv-x="1320" 
d="M887 430q0 92 -51 146.5t-173.5 100.5t-211 91.5t-152 104.5t-99 139t-35.5 190q0 189 121.5 310.5t322.5 141.5v241h179v-244q199 -28 311.5 -165.5t112.5 -356.5h-325q0 134 -55.5 201t-148.5 67q-92 0 -142.5 -52t-50.5 -144q0 -86 49 -137.5t183.5 -105.5t221 -101.5
t146 -108t91 -137t31.5 -179.5q0 -191 -119 -310t-328 -140v-223h-179v222q-230 25 -356.5 163.5t-126.5 368.5h325q0 -133 63.5 -204.5t182.5 -71.5q99 0 156 52t57 141z" />
    <glyph glyph-name="percent" unicode="%" horiz-adv-x="1698" 
d="M107 1321q0 150 97.5 244t255.5 94q161 0 258.5 -93t97.5 -251v-81q0 -151 -97.5 -243.5t-255.5 -92.5q-160 0 -258 93t-98 250v80zM322 1234q0 -67 39 -108t102 -41t100 41.5t37 111.5v83q0 67 -37 108.5t-103 41.5q-61 0 -99.5 -41t-38.5 -114v-82zM888 401
q0 152 99 244.5t256 92.5q160 0 258 -91.5t98 -252.5v-81q0 -150 -96.5 -242.5t-257.5 -92.5t-259 93t-98 247v83zM1104 313q0 -61 40.5 -105t100.5 -44q137 0 137 152v85q0 67 -38 108t-101 41t-101 -41t-38 -111v-85zM527 122l-159 86l799 1278l158 -86z" />
    <glyph glyph-name="ampersand" unicode="&#x26;" horiz-adv-x="1509" 
d="M80 440q0 114 63.5 210.5t232.5 214.5q-73 97 -114.5 183t-41.5 179q0 191 121 311t325 120q183 0 300.5 -109t117.5 -272q0 -196 -198 -345l-126 -91l282 -328q66 131 66 288h277q0 -319 -147 -517l244 -284h-368l-84 97q-181 -119 -416 -119q-242 0 -388 127t-146 335z
M630 238q117 0 221 65l-322 373l-24 -17q-100 -85 -100 -201q0 -98 62.5 -159t162.5 -61zM511 1232q0 -84 99 -212l86 57q67 43 92 83.5t25 96.5t-41.5 97.5t-106.5 41.5q-70 0 -112 -45t-42 -119z" />
    <glyph glyph-name="quotesingle" unicode="'" horiz-adv-x="372" 
d="M309 1560l-33 -454h-205v619h238v-165z" />
    <glyph glyph-name="parenleft" unicode="(" horiz-adv-x="952" 
d="M895 1713q-14 -15 -44.5 -45.5t-67.5 -71.5t-78.5 -89t-76.5 -99q-41 -56 -83 -131t-76.5 -163.5t-59.5 -187t-29 -202.5q0 -258 136.5 -523.5t407.5 -519.5l-212 -237q-650 608 -650 1253v37q7 234 89.5 454t222.5 413q64 89 141 176.5t183 182.5z" />
    <glyph glyph-name="parenright" unicode=")" horiz-adv-x="957" 
d="M295 1960q106 -95 183 -182.5t140 -174.5q141 -195 223.5 -415t89.5 -454v-37q0 -645 -650 -1253l-213 237q272 254 408.5 519.5t136.5 523.5q-4 104 -29 202.5t-60 187t-77 163.5t-82 131q-36 51 -77 99t-78.5 89t-67.5 71.5t-44 45.5z" />
    <glyph glyph-name="asterisk" unicode="*" horiz-adv-x="1042" 
d="M383 1080l-353 100l67 204l349 -141l-23 392h221l-23 -400l340 138l67 -205l-360 -100l236 -299l-179 -127l-204 328l-202 -316l-179 121z" />
    <glyph glyph-name="plus" unicode="+" horiz-adv-x="1256" 
d="M779 915h406v-293h-406v-458h-308v458h-407v293h407v439h308v-439z" />
    <glyph glyph-name="comma" unicode="," horiz-adv-x="562" 
d="M209 -410l-170 89l41 73q75 137 77 273v251h274l-1 -224q-1 -125 -63 -252t-158 -210z" />
    <glyph glyph-name="hyphen" unicode="-" horiz-adv-x="892" 
d="M756 569h-632v262h632v-262z" />
    <glyph glyph-name="period" unicode="." horiz-adv-x="691" 
d="M153 51q0 83 56 135t141 52q86 0 142 -52t56 -135q0 -82 -55.5 -133.5t-142.5 -51.5q-86 0 -141.5 51.5t-55.5 133.5z" />
    <glyph glyph-name="slash" unicode="/" horiz-adv-x="859" 
d="M227 -140h-242l602 1775h242z" />
    <glyph glyph-name="zero" unicode="0" horiz-adv-x="990" 
d="M362 543q0 -31 11.5 -58t32 -47.5t47.5 -32t58 -11.5t58.5 11.5t48 32t32.5 47.5t12 58t-12 58.5t-32.5 48t-48 32.5t-58.5 12t-58 -12t-47.5 -32.5t-32 -48t-11.5 -58.5zM137 543q0 77 29.5 145.5t80 119.5t118.5 81t146 30q77 0 145.5 -30t119.5 -81t81 -119.5
t30 -145.5q0 -78 -30 -146t-81 -118.5t-119.5 -80t-145.5 -29.5q-78 0 -146 29.5t-118.5 80t-80 118.5t-29.5 146z" />
    <glyph glyph-name="one" unicode="1" horiz-adv-x="662" 
d="M261 -58q0 132 -1.5 267.5t-8 268t-18.5 260.5t-33.5 245.5t-53.5 221.5t-78 190l255 159q52 -81 87 -170t58.5 -184.5t39 -196t29.5 -204.5q10 -80 16 -173t9.5 -189t4.5 -190t1 -176v-129h-307v0z" />
    <glyph glyph-name="two" unicode="2" horiz-adv-x="1137" 
d="M1029 1530q11 -72 17 -132t6 -111q0 -95 -28 -187.5t-83.5 -166t-138.5 -119t-193 -45.5q-26 0 -50.5 1.5t-47.5 5.5q12 -103 18.5 -214t9.5 -222.5t3.5 -218.5t0.5 -201h-307q0 168 -3.5 338t-16 329t-36.5 300.5t-64 253.5q-17 41 -28.5 70t-22.5 53t-22.5 46t-26.5 49
l258 164q21 -33 36 -60.5t28.5 -56t27.5 -62t32 -76.5q18 -42 37.5 -78t44.5 -62t56.5 -40.5t72.5 -13.5q52 1 79.5 24t40 57.5t14 77t1.5 82.5q0 38 -4.5 74.5t-12.5 86.5l302 54v0z" />
    <glyph glyph-name="three" unicode="3" horiz-adv-x="1439" 
d="M1374 1532q12 -64 20 -109.5t12.5 -80t6.5 -62.5t2 -58q0 -77 -20 -153t-62.5 -136.5t-108 -98.5t-155.5 -38q-25 0 -54.5 4t-60.5 14t-62 27.5t-59 44.5q-51 -55 -111.5 -81.5t-144.5 -26.5q-19 0 -36.5 0.5t-34.5 3.5q11 -94 18 -204t10.5 -224t5 -225.5t1.5 -207.5
h-310q1 20 2 52.5t1.5 67.5t1 67.5t0.5 52.5q0 88 -2.5 186.5t-10.5 202t-22.5 209.5t-38 209t-58.5 199t-83 181l273 159q15 -23 28 -46.5t27.5 -53t31.5 -67t39 -87.5q22 -51 37.5 -83.5t31.5 -51.5t36 -26.5t52 -7.5q28 0 45.5 14t28 37.5t14.5 54.5t4 64q0 37 -4 79
t-10 104l282 40q3 -28 7 -66.5t10 -80t15 -82.5t22.5 -73t32.5 -52t45 -20q18 0 29 12.5t17 31t8.5 39t2.5 37.5q0 14 -1 30t-5 43t-11 69.5t-19 109.5l284 57v0z" />
    <glyph glyph-name="four" unicode="4" horiz-adv-x="1258" 
d="M804 636q-72 0 -141 13.5t-132 44.5q12 -108 19 -208t11 -194.5t5 -184t1 -177.5h-307q0 202 -8 399.5t-33.5 379.5t-74 342.5t-130.5 288.5l259 163q32 -54 60 -101t49 -95q36 54 85 93.5t105.5 65.5t118.5 39t124 13q43 0 86.5 -6t87.5 -21t87.5 -40t85.5 -63
l-160 -252q0 1 -17.5 12.5t-49 25.5t-74.5 25.5t-94 11.5q-43 0 -87 -16t-79 -40.5t-55.5 -54.5t-15.5 -57v1q6 -32 35.5 -52t70 -32t84.5 -16.5t80 -4.5q35 0 76 5.5t83.5 16.5t83.5 27.5t76 38.5l129 -240q-118 -86 -229.5 -118.5t-214.5 -32.5z" />
    <glyph glyph-name="five" unicode="5" horiz-adv-x="1379" 
d="M933 -91q-72 0 -134.5 29.5t-107.5 77.5q-49 -51 -111.5 -78.5t-135.5 -27.5q-92 0 -162.5 44t-118.5 113.5t-72.5 155.5t-24.5 169q0 122 30 239t80.5 232t116.5 229t138 231q-10 11 -22 22.5t-21 21.5l214 215q78 -77 163.5 -159t167.5 -170.5t156 -184.5t129.5 -200
t88.5 -217t33 -236q0 -93 -23.5 -182t-72.5 -159.5t-126 -115.5t-183 -49h-2zM832 548q0 -27 1.5 -62.5t6 -72.5t11.5 -73t17.5 -64t26 -45.5t35.5 -16.5q29 1 54.5 19.5t44 47t29.5 62.5t11 66q0 95 -39 188t-101 182t-141 173.5t-158 164.5q-57 -78 -112 -165.5
t-97.5 -182t-68.5 -194t-26 -200.5q0 -32 9.5 -61t26 -50.5t37.5 -34t45 -12.5q13 0 28 8.5t30 24t28.5 38t22.5 50.5q6 18 10.5 38t9 44.5t8.5 55.5l11 74z" />
    <glyph glyph-name="six" unicode="6" horiz-adv-x="1176" 
d="M59 5q6 35 29 91t57 122.5t75.5 136t84 132t82.5 110.5t71 71q-62 13 -115 46t-93 81.5t-62.5 109.5t-22.5 129q0 103 45.5 190t120 150t170.5 98.5t197 35.5q81 0 163 -27.5t172 -78.5l-139 -230q-31 14 -58.5 21.5t-53 10.5t-49.5 3.5t-47 0.5q-33 0 -76 -10.5
t-81 -31.5t-64 -53t-26 -75q0 -32 18 -52t44.5 -31t56.5 -14t54 -1q45 -1 95 6.5t103 19.5t107 27.5t107 30.5l109 -264q-144 -55 -255 -131t-194.5 -160.5t-142 -170.5t-97.5 -161.5t-62.5 -134t-35.5 -87.5l-287 90v0z" />
    <glyph glyph-name="seven" unicode="7" horiz-adv-x="1291" 
d="M519 -83q0 237 -40.5 440t-106.5 379.5t-151.5 331.5t-175.5 298l257 165q72 -119 130 -239.5t105 -240.5t84 -237.5t67 -229.5q24 87 51 180t56 184.5t59 179t60 164t59.5 139.5t57.5 106l256 -163q-38 -60 -76.5 -135t-76 -160.5t-74 -179.5t-70.5 -191
q-78 -226 -120.5 -422.5t-44.5 -368.5h-306v0z" />
    <glyph glyph-name="eight" unicode="8" horiz-adv-x="1351" 
d="M1071 -94q-27 42 -57.5 102t-62 132.5t-63.5 154.5t-63 168.5t-59 174t-52 171.5q-33 -106 -73 -218t-89 -227t-108 -232t-129 -232l-257 164q90 143 175 299.5t151.5 334.5t106.5 382t40 442l325 -1q3 -109 25.5 -239t58.5 -266.5t83 -274t98 -262.5t104 -231t101 -180
l-255 -162v0z" />
    <glyph glyph-name="nine" unicode="9" horiz-adv-x="1098" 
d="M877 799q3 -103 19 -211t41.5 -207t58.5 -181t70 -131l-233 -181q-41 44 -72 103.5t-53 128t-37 142.5t-24.5 147.5t-14.5 143t-8 128.5q-35 -4 -78.5 -5.5t-77.5 -1.5q-85 0 -160.5 18t-133 62.5t-93.5 118.5t-42 186q0 57 14 116.5t40 115t62.5 104t81 84t96 55.5
t108.5 18q39 -2 84.5 -14.5t91 -43t89.5 -84.5t80 -138q21 -51 37.5 -114t27.5 -127t17.5 -125t8.5 -107zM450 985q15 0 34.5 0.5t40.5 1.5t40.5 2.5t33.5 3.5q-5 35 -18.5 78t-35 82t-52 67.5t-68.5 33.5q-23 3 -47.5 -16t-44.5 -48.5t-33.5 -63.5t-13.5 -62
q0 -24 15 -39.5t39 -24.5t53 -12t57 -3z" />
    <glyph glyph-name="colon" unicode=":" horiz-adv-x="656" 
d="M151 51q0 83 56.5 135t141.5 52q86 0 142 -52t56 -135q0 -82 -55.5 -133.5t-142.5 -51.5q-86 0 -142 51.5t-56 133.5zM151 892q0 84 56.5 136t141.5 52q86 0 142 -52t56 -136q0 -82 -55.5 -133.5t-142.5 -51.5q-86 0 -142 51.5t-56 133.5z" />
    <glyph glyph-name="semicolon" unicode=";" horiz-adv-x="603" 
d="M121 1079q0 78 52.5 126t130.5 48q80 0 132.5 -48t52.5 -126q0 -76 -52 -124t-133 -48q-79 0 -131 48t-52 124zM234 -410l-170 89l40 73q76 137 78 273v251h274l-1 -224q-1 -125 -63 -252t-158 -210z" />
    <glyph glyph-name="less" unicode="&#x3c;" horiz-adv-x="1170" 
d="M387 694l641 -226v-314l-967 410v265l967 410v-315z" />
    <glyph glyph-name="equal" unicode="=" horiz-adv-x="1316" 
d="M1157 838h-1004v265h1004v-265zM1157 352h-1004v265h1004v-265z" />
    <glyph glyph-name="greater" unicode="&#x3e;" horiz-adv-x="1188" 
d="M787 697l-652 228v313l978 -410v-264l-978 -411v313z" />
    <glyph glyph-name="question" unicode="?" horiz-adv-x="1144" 
d="M390 502q0 157 38 250.5t139.5 183.5t135.5 147t34 120q0 190 -175 190q-84 0 -134 -51.5t-52 -140.5h-325q2 214 138.5 335.5t372.5 121.5q238 0 369 -115.5t131 -325.5q0 -95 -42.5 -180t-149.5 -188l-91 -86q-85 -82 -97 -192l-5 -69h-287zM357 157q0 75 51 124
t131 49t131 -49t51 -124q0 -74 -50 -122t-132 -48t-132 48t-50 122z" />
    <glyph glyph-name="at" unicode="@" horiz-adv-x="2059" 
d="M1964 602q-12 -288 -142 -457t-349 -169q-96 0 -166.5 42t-105.5 119q-113 -157 -294 -157q-164 0 -253.5 138t-67.5 365q20 185 94 329.5t186 222t242 77.5q161 0 274 -74l71 -49l-57 -649q-11 -88 19.5 -135.5t98.5 -47.5q103 0 172.5 121t76.5 316
q19 392 -157.5 602.5t-524.5 210.5q-216 0 -385.5 -110t-267.5 -312.5t-110 -464.5q-18 -398 159.5 -615t530.5 -217q94 0 196 20.5t176 55.5l43 -173q-69 -45 -185 -72.5t-234 -27.5q-296 0 -505 119.5t-312 353t-89 556.5q13 310 141 556t349 380t498 134
q282 0 485 -120.5t304.5 -345t88.5 -522.5zM836 483q-13 -148 25.5 -225t123.5 -77q55 0 104.5 48t81.5 139l48 532q-44 14 -90 14q-129 0 -200.5 -110t-92.5 -321z" />
    <glyph glyph-name="A" unicode="A" horiz-adv-x="1548" 
d="M1069 337h-591l-112 -337h-358l609 1635h312l612 -1635h-358zM569 610h409l-205 612z" />
    <glyph glyph-name="B" unicode="B" horiz-adv-x="1468" 
d="M146 0v1635h573q297 0 451 -114t154 -334q0 -120 -61.5 -211.5t-172.5 -134.5q126 -31 198.5 -126.5t72.5 -233.5q0 -236 -150.5 -357.5t-428.5 -123.5h-636zM483 712v-441h289q119 0 185.5 56.5t66.5 156.5q0 225 -232 228h-309zM483 950h249q255 5 255 203
q0 112 -64.5 160.5t-203.5 48.5h-236v-412z" />
    <glyph glyph-name="C" unicode="C" horiz-adv-x="1505" 
d="M1430 545q-19 -264 -195 -415.5t-463 -151.5q-315 0 -495 211.5t-180 580.5v100q0 236 83 416t237.5 276t358.5 96q283 0 456 -152t200 -426h-337q-12 159 -88 230t-231 71q-168 0 -252 -120.5t-86 -374.5v-123q0 -265 80.5 -387.5t253.5 -122.5q156 0 232.5 71t88.5 221
h337z" />
    <glyph glyph-name="D" unicode="D" horiz-adv-x="1495" 
d="M146 0v1635h503q216 0 386 -97t265.5 -276t95.5 -407v-76q0 -228 -94 -405t-264.5 -275t-385.5 -99h-506zM483 1362v-1091h163q197 0 301.5 129t107.5 369v87q0 249 -103.5 377.5t-302.5 128.5h-166z" />
    <glyph glyph-name="E" unicode="E" horiz-adv-x="1294" 
d="M1130 709h-647v-438h759v-271h-1096v1635h1094v-273h-757v-389h647v-264z" />
    <glyph glyph-name="F" unicode="F" horiz-adv-x="1260" 
d="M1130 668h-647v-668h-337v1635h1065v-273h-728v-422h647v-272z" />
    <glyph glyph-name="G" unicode="G" horiz-adv-x="1567" 
d="M1440 207q-91 -109 -257.5 -169t-368.5 -60q-212 0 -372 92.5t-247 268.5t-89 415v111q0 245 82.5 424t238 274t364.5 95q290 0 454 -139t195 -404h-328q-23 141 -100 206t-211 65q-172 0 -262 -129t-91 -384v-105q0 -257 98 -388.5t286 -131.5q190 0 271 81v282h-307
v248h644v-652z" />
    <glyph glyph-name="H" unicode="H" horiz-adv-x="1625" 
d="M1477 0h-337v701h-657v-701h-337v1635h337v-662h657v662h337v-1635z" />
    <glyph glyph-name="I" unicode="I" horiz-adv-x="670" 
d="M504 0h-337v1635h337v-1635z" />
    <glyph glyph-name="J" unicode="J" horiz-adv-x="1285" 
d="M805 1635h337v-1132q0 -156 -69 -275.5t-195 -184.5t-284 -65q-259 0 -404 131.5t-145 373.5h339q0 -120 50.5 -177.5t159.5 -57.5q97 0 154 66.5t57 188.5v1132z" />
    <glyph glyph-name="K" unicode="K" horiz-adv-x="1460" 
d="M658 656l-175 -189v-467h-337v1635h337v-741l148 203l417 538h414l-580 -726l597 -909h-401z" />
    <glyph glyph-name="L" unicode="L" horiz-adv-x="1245" 
d="M483 271h715v-271h-1052v1635h337v-1364z" />
    <glyph glyph-name="M" unicode="M" horiz-adv-x="2015" 
d="M586 1635l420 -1186l418 1186h443v-1635h-339v447l34 772l-441 -1219h-232l-440 1217l34 -770v-447h-337v1635h440z" />
    <glyph glyph-name="N" unicode="N" horiz-adv-x="1624" 
d="M1476 0h-337l-656 1076v-1076h-337v1635h337l657 -1078v1078h336v-1635z" />
    <glyph glyph-name="O" unicode="O" horiz-adv-x="1588" 
d="M1489 781q0 -242 -85.5 -424t-244 -280.5t-364.5 -98.5q-203 0 -362.5 97.5t-247 279t-88.5 417.5v80q0 242 87 425.5t245.5 282t363 98.5t363.5 -98.5t246 -282t87 -423.5v-73zM1148 855q0 257 -92 390.5t-263 133.5q-170 0 -262 -132t-93 -387v-79q0 -251 92 -389
t265 -138q170 0 261 133t92 388v80z" />
    <glyph glyph-name="P" unicode="P" horiz-adv-x="1484" 
d="M483 576v-576h-337v1635h638q184 0 324 -67.5t215 -191.5t75 -282q0 -240 -164.5 -379t-455.5 -139h-295zM483 849h301q134 0 204 63t70 180q0 120 -71 194t-195 76h-309v-513z" />
    <glyph glyph-name="Q" unicode="Q" horiz-adv-x="1588" 
d="M1487 781q0 -230 -74 -399t-206 -271l272 -213l-214 -190l-349 280q-59 -10 -123 -10q-203 0 -362.5 97.5t-247.5 279t-89 417.5v80q0 242 87 425.5t246 282t363.5 98.5t363.5 -98.5t246 -282t87 -423.5v-73zM1146 855q0 257 -92.5 390.5t-262.5 133.5t-262 -132
t-93 -387v-79q0 -251 92 -389t265 -138q169 0 260 133t93 388v80z" />
    <glyph glyph-name="R" unicode="R" horiz-adv-x="1468" 
d="M751 599h-268v-599h-337v1635h608q289 0 446.5 -129t157.5 -365q0 -167 -72.5 -279t-219.5 -178l354 -668v-16h-362zM483 871h272q127 0 196.5 65t69.5 178q0 116 -66 182t-201 66h-271v-491z" />
    <glyph glyph-name="S" unicode="S" horiz-adv-x="1414" 
d="M994 429q0 95 -67.5 146.5t-242.5 108t-277 111.5q-279 151 -279 406q0 132 74.5 236t214.5 162.5t314 58.5q175 0 312 -63.5t213 -179.5t76 -263h-337q0 113 -70.5 175t-199.5 62q-123 0 -191.5 -52t-68.5 -138q0 -79 80.5 -133t236.5 -101q287 -87 418.5 -215
t131.5 -319q0 -212 -160.5 -332.5t-432.5 -120.5q-189 0 -344 69t-236.5 189t-81.5 278h339q0 -270 323 -270q120 0 187.5 48.5t67.5 136.5z" />
    <glyph glyph-name="T" unicode="T" horiz-adv-x="1423" 
d="M1377 1362h-501v-1362h-337v1362h-494v273h1332v-273z" />
    <glyph glyph-name="U" unicode="U" horiz-adv-x="1514" 
d="M1384 1635v-1077q0 -268 -168 -424t-459 -156q-286 0 -454.5 151.5t-172.5 416.5v1089h337v-1079q0 -161 77 -234.5t213 -73.5q284 0 289 299v1088h338z" />
    <glyph glyph-name="V" unicode="V" horiz-adv-x="1504" 
d="M750 405l371 1230h375l-569 -1635h-352l-567 1635h374z" />
    <glyph glyph-name="W" unicode="W" horiz-adv-x="2011" 
d="M1420 472l220 1163h335l-362 -1635h-339l-267 1094l-266 -1094h-339l-363 1635h336l221 -1161l270 1161h285z" />
    <glyph glyph-name="X" unicode="X" horiz-adv-x="1461" 
d="M731 1071l307 564h387l-476 -811l489 -824h-392l-315 573l-314 -573h-392l488 824l-476 811h388z" />
    <glyph glyph-name="Y" unicode="Y" horiz-adv-x="1422" 
d="M710 898l340 737h368l-536 -1042v-593h-343v593l-537 1042h370z" />
    <glyph glyph-name="Z" unicode="Z" horiz-adv-x="1394" 
d="M503 271h824v-271h-1245v198l809 1164h-808v273h1226v-193z" />
    <glyph glyph-name="bracketleft" unicode="[" horiz-adv-x="639" 
d="M620 1652h-160v-1782h160v-251h-485v2283h485v-250z" />
    <glyph glyph-name="backslash" unicode="\" horiz-adv-x="970" 
d="M0 1635h331l683 -1775h-332z" />
    <glyph glyph-name="bracketright" unicode="]" horiz-adv-x="639" 
d="M15 1902h485v-2283h-485v251h160v1782h-160v250z" />
    <glyph glyph-name="asciicircum" unicode="^" horiz-adv-x="1005" 
d="M503 1332l-195 -513h-259l336 816h236l336 -816h-257z" />
    <glyph glyph-name="underscore" unicode="_" horiz-adv-x="1026" 
d="M1024 -254h-1023v254h1023v-254z" />
    <glyph glyph-name="grave" unicode="`" horiz-adv-x="760" 
d="M635 1377h-267l-310 348h354z" />
    <glyph glyph-name="a" unicode="a" horiz-adv-x="1233" 
d="M829 0q-23 44 -33 109q-118 -131 -306 -131q-179 0 -296.5 103t-117.5 260q0 194 143.5 297t413.5 104h150v70q0 84 -43.5 134.5t-136.5 50.5q-82 0 -128.5 -39t-46.5 -108h-325q0 106 65.5 195.5t184.5 141t267 51.5q225 0 356.5 -113t131.5 -318v-526q2 -173 49 -262
v-19h-328zM560 226q72 0 133 32t90 86v209h-122q-243 0 -259 -169l-1 -19q0 -61 42.5 -100t116.5 -39z" />
    <glyph glyph-name="b" unicode="b" horiz-adv-x="1295" 
d="M1220 596q0 -292 -125 -455t-348 -163q-198 0 -316 151l-14 -129h-292v1725h324v-619q113 132 296 132q222 0 348.5 -163.5t126.5 -460.5v-18zM895 620q0 184 -58.5 269t-173.5 85q-155 0 -214 -127v-480q60 -128 216 -128q157 0 206 155q24 74 24 226z" />
    <glyph glyph-name="c" unicode="c" horiz-adv-x="1199" 
d="M630 239q90 0 146 49.5t58 131.5h305q-1 -124 -67.5 -226.5t-181.5 -159t-254 -56.5q-261 0 -411.5 165.5t-150.5 457.5v21q0 281 149.5 448.5t409.5 167.5q228 0 366 -130t140 -345h-305q-2 94 -58 153t-148 59q-114 0 -171.5 -82.5t-57.5 -268.5v-33q0 -188 57 -270
t174 -82z" />
    <glyph glyph-name="d" unicode="d" horiz-adv-x="1296" 
d="M74 617q0 284 127.5 452.5t348.5 168.5q178 0 293 -133v620h326v-1725h-293l-16 129q-121 -151 -312 -151q-214 0 -344 169t-130 470zM399 593q0 -171 59.5 -262t172.5 -91q151 0 212 127v480q-60 127 -210 127q-234 0 -234 -381z" />
    <glyph glyph-name="e" unicode="e" horiz-adv-x="1243" 
d="M684 -22q-267 0 -435 163.5t-168 436.5v32q0 183 70.5 327t200.5 222.5t296 78.5q249 0 392.5 -157.5t143.5 -445.5v-133h-774q16 -119 95 -191t200 -72q188 0 293 136l160 -178q-73 -104 -197.5 -161.5t-276.5 -57.5zM647 975q-97 0 -157 -65t-77 -187h452v26
q-2 108 -58.5 167t-159.5 59z" />
    <glyph glyph-name="f" unicode="f" horiz-adv-x="824" 
d="M213 0v977h-180v238h180v103q0 205 117.5 318t328.5 113q68 0 165 -23l-3 -251q-40 10 -99 10q-183 0 -183 -172v-98h242v-238h-242v-977h-326z" />
    <glyph glyph-name="g" unicode="g" horiz-adv-x="1313" 
d="M77 617q0 279 133.5 450t358.5 171q200 0 311 -137l14 114h294v-1175q0 -159 -72.5 -277t-203.5 -179.5t-308 -61.5q-133 0 -260 53t-192 138l143 197q122 -136 295 -136q129 0 201 69t72 196v65q-113 -126 -296 -126q-219 0 -354.5 171t-135.5 454v14zM402 593
q0 -165 66.5 -259t181.5 -94q148 0 213 112v511q-66 111 -211 111q-116 0 -183 -95.5t-67 -285.5z" />
    <glyph glyph-name="h" unicode="h" horiz-adv-x="1287" 
d="M441 1083q130 155 325 155q395 0 401 -460v-778h-325v769q0 105 -45 155t-149 50q-143 0 -207 -110v-864h-324v1725h324v-642z" />
    <glyph glyph-name="i" unicode="i" horiz-adv-x="610" 
d="M467 0h-325v1215h325v-1215zM122 1530q0 73 49 120t133 47q83 0 132.5 -47t49.5 -120q0 -75 -50 -122t-132 -47t-132 47t-50 122z" />
    <glyph glyph-name="j" unicode="j" horiz-adv-x="597" 
d="M468 1215v-1281q0 -201 -106.5 -313t-307.5 -112q-84 0 -161 19v257q59 -10 103 -10q147 0 147 156v1284h325zM117 1530q0 73 49 120t133 47t133 -47t49 -120q0 -75 -50 -122t-132 -47t-132 47t-50 122z" />
    <glyph glyph-name="k" unicode="k" horiz-adv-x="1229" 
d="M566 487l-117 -116v-371h-324v1725h324v-956l63 81l311 365h390l-439 -506l477 -709h-373z" />
    <glyph glyph-name="l" unicode="l" horiz-adv-x="610" 
d="M467 0h-325v1725h325v-1725z" />
    <glyph glyph-name="m" unicode="m" horiz-adv-x="1991" 
d="M429 1215l10 -136q129 159 349 159q235 0 323 -186q128 186 365 186q197 0 294 -115.5t97 -346.5v-776h-326v775q0 103 -40.5 151t-142.5 48q-146 0 -202 -140l1 -834h-325v774q0 105 -41.5 152.5t-141.5 47.5q-138 0 -200 -115v-859h-324v1215h304z" />
    <glyph glyph-name="n" unicode="n" horiz-adv-x="1288" 
d="M423 1215l10 -140q131 163 350 163q193 0 287.5 -113.5t96.5 -339.5v-785h-325v777q0 103 -45 150t-149 47q-137 0 -206 -117v-857h-324v1215h305z" />
    <glyph glyph-name="o" unicode="o" horiz-adv-x="1300" 
d="M74 619q0 181 69.5 322.5t200.5 219t304 77.5q246 0 401.5 -150.5t173.5 -409.5l2 -83q0 -279 -156 -448t-419 -169t-419.5 168t-156.5 458v15zM399 595q0 -173 65 -264.5t186 -91.5q118 0 184.5 90.5t66.5 289.5q0 169 -66.5 262.5t-186.5 93.5q-119 0 -184 -92.5
t-65 -287.5z" />
    <glyph glyph-name="p" unicode="p" horiz-adv-x="1295" 
d="M1219 596q0 -280 -127.5 -449t-344.5 -169q-184 0 -298 128v-573h-324v1682h301l11 -119q118 142 308 142q224 0 349 -166.5t125 -458.5v-17zM894 620q0 170 -60 262t-175 92q-153 0 -210 -117v-498q60 -120 212 -120q233 0 233 381z" />
    <glyph glyph-name="q" unicode="q" horiz-adv-x="1299" 
d="M74 619q0 286 127.5 452.5t349.5 166.5q196 0 312 -150l21 127h285v-1682h-326v571q-112 -126 -294 -126q-217 0 -346 168t-129 473zM399 595q0 -174 61 -265t172 -91q150 0 211 119v502q-60 115 -208 115q-113 0 -174.5 -91t-61.5 -289z" />
    <glyph glyph-name="r" unicode="r" horiz-adv-x="839" 
d="M807 911q-66 9 -116 9q-185 0 -242 -125v-795h-324v1215h306l9 -145q98 168 271 168q54 0 101 -15z" />
    <glyph glyph-name="s" unicode="s" horiz-adv-x="1183" 
d="M783 336q0 59 -59 93.5t-189 61.5q-434 91 -434 368q0 162 134 270.5t351 108.5q232 0 370.5 -109t138.5 -283h-325q0 69 -44.5 114.5t-140.5 45.5q-82 0 -127 -37t-45 -94q0 -54 51 -87t172.5 -57.5t204.5 -54.5q257 -94 257 -327q0 -166 -142.5 -268.5t-368.5 -102.5
q-152 0 -270.5 54t-186 149t-67.5 205h308q4 -86 63.5 -132t159.5 -46q93 0 141 35.5t48 92.5z" />
    <glyph glyph-name="t" unicode="t" horiz-adv-x="777" 
d="M513 1514v-299h208v-238h-208v-606q0 -68 26 -97t99 -29q54 0 95 8v-246q-95 -29 -196 -29q-342 0 -348 344v655h-178v238h178v299h324z" />
    <glyph glyph-name="u" unicode="u" horiz-adv-x="1287" 
d="M852 124q-120 -146 -332 -146q-195 0 -298 112t-105 329v796h324v-785q0 -190 173 -190q165 0 227 115v860h326v-1215h-306z" />
    <glyph glyph-name="v" unicode="v" horiz-adv-x="1162" 
d="M579 396l226 819h339l-410 -1215h-309l-410 1215h339z" />
    <glyph glyph-name="w" unicode="w" horiz-adv-x="1690" 
d="M1181 441l160 774h313l-310 -1215h-271l-231 765l-230 -765h-271l-310 1215h314l158 -773l222 773h235z" />
    <glyph glyph-name="x" unicode="x" horiz-adv-x="1170" 
d="M587 852l205 363h347l-346 -595l360 -620h-348l-217 382l-215 -382h-349l360 620l-345 595h348z" />
    <glyph glyph-name="y" unicode="y" horiz-adv-x="1154" 
d="M578 459l225 756h348l-488 -1404l-27 -64q-109 -238 -360 -238q-70 0 -143 22v246l49 -2q92 0 137.5 28.5t71.5 93.5l38 100l-426 1218h350z" />
    <glyph glyph-name="z" unicode="z" horiz-adv-x="1170" 
d="M498 262h594v-262h-1009v198l572 754h-555v263h974v-192z" />
    <glyph glyph-name="braceleft" unicode="{" horiz-adv-x="759" 
d="M658 -404q-404 113 -404 522v223q0 237 -200 237v233q195 0 200 223v238q0 208 101 336t303 186l63 -181q-85 -32 -129 -110t-46 -216v-236q0 -254 -201 -356q201 -103 201 -358v-238q5 -263 175 -321z" />
    <glyph glyph-name="bar" unicode="|" horiz-adv-x="582" 
d="M391 -303h-197v1938h197v-1938z" />
    <glyph glyph-name="braceright" unicode="}" horiz-adv-x="759" 
d="M38 -222q171 60 175 325v238q0 254 206 353q-206 99 -206 358v235q-4 262 -175 326l63 181q201 -57 302 -184.5t102 -333.5v-242q5 -223 200 -223v-233q-200 0 -200 -234v-244q-9 -393 -404 -504z" />
    <glyph glyph-name="asciitilde" unicode="~" horiz-adv-x="1491" 
d="M1371 891q0 -209 -104.5 -339.5t-269.5 -130.5q-83 0 -154 32t-164.5 121.5t-172.5 89.5q-65 0 -105.5 -56.5t-40.5 -143.5l-241 2q0 209 101.5 336t270.5 127q87 0 159 -34t163.5 -121t166.5 -87q67 0 109 59.5t42 145.5z" />
    <glyph glyph-name="exclamdown" unicode="&#xa1;" horiz-adv-x="649" 
d="M191 718h271l37 -1132h-345zM508 1065q0 -76 -52 -124t-130.5 -48t-130 48t-51.5 123.5t50 123.5t132 48t132 -48t50 -123z" />
    <glyph glyph-name="cent" unicode="&#xa2;" horiz-adv-x="1323" 
d="M667 239q90 0 146 49.5t58 131.5h306q-2 -163 -110.5 -281.5t-282.5 -150.5v-263h-225v262q-210 33 -329 195t-119 415v25q0 245 118 408t330 199v251h225v-253q183 -32 287 -156.5t106 -307.5h-306q-2 96 -58 154t-147 58q-115 0 -172 -84t-58 -263v-37
q0 -189 57.5 -270.5t173.5 -81.5z" />
    <glyph glyph-name="sterling" unicode="&#xa3;" horiz-adv-x="1367" 
d="M633 647l7 -156q0 -138 -69 -220h733v-271h-1189v271h103q81 20 81 201l-6 175h-182v265h173l-8 255q0 227 139 358t371 131q238 0 374 -126t136 -342h-322q0 96 -49 146.5t-140 50.5q-74 0 -123 -55t-49 -163l10 -255h347v-265h-337z" />
    <glyph glyph-name="currency" unicode="&#xa4;" horiz-adv-x="1592" 
d="M1205 120q-179 -142 -405 -142q-228 0 -406 141l-145 -148l-158 162l152 153q-113 176 -113 397q0 229 123 410l-162 165l158 162l160 -163q174 129 391 129t392 -132l161 167l160 -163l-166 -170q120 -178 120 -405q0 -217 -110 -392l156 -158l-160 -163zM339 683
q0 -133 60.5 -247t168 -179.5t232.5 -65.5q123 0 230.5 65.5t168 179.5t60.5 247t-60.5 246t-167.5 178t-231 65q-126 0 -233 -65t-167.5 -178t-60.5 -246z" />
    <glyph glyph-name="yen" unicode="&#xa5;" horiz-adv-x="1408" 
d="M703 955l311 680h370l-422 -802h263v-196h-358v-129h358v-196h-358v-312h-337v312h-377v196h377v129h-377v196h292l-423 802h371z" />
    <glyph glyph-name="brokenbar" unicode="&#xa6;" horiz-adv-x="579" 
d="M144 -303v893h292v-893h-292zM436 784h-292v851h292v-851z" />
    <glyph glyph-name="section" unicode="&#xa7;" horiz-adv-x="1445" 
d="M1325 540q0 -204 -182 -304q152 -115 152 -324q0 -196 -154.5 -308t-426.5 -112q-288 0 -449.5 120.5t-161.5 348.5l325 1q0 -100 72 -153.5t214 -53.5q126 0 191 42t65 113q0 73 -72.5 119t-277 103t-308.5 118.5t-155 146t-51 203.5q0 202 182 306q-153 116 -153 324
q0 192 157.5 310t426.5 118q277 0 430 -127t153 -353h-325q0 98 -69 158t-189 60q-124 0 -191.5 -44t-67.5 -120q0 -82 62.5 -123.5t270.5 -96.5t317.5 -117t162 -148t52.5 -207zM514 791q-84 -48 -84 -159q0 -77 46.5 -119t186.5 -87l249 -76q92 53 92 158q0 69 -51 113.5
t-184 89.5z" />
    <glyph glyph-name="dieresis" unicode="&#xa8;" horiz-adv-x="1074" 
d="M104 1533q0 61 43.5 102t111.5 41q70 0 112.5 -42.5t42.5 -100.5t-42.5 -100t-112.5 -42q-66 0 -110.5 40t-44.5 102zM651 1533q0 59 44.5 101t110.5 42q65 0 110.5 -41t45.5 -102q0 -58 -43 -100.5t-112.5 -42.5t-112.5 42.5t-43 100.5z" />
    <glyph glyph-name="copyright" unicode="&#xa9;" horiz-adv-x="1804" 
d="M1254 669q0 -170 -98 -261t-277.5 -91t-286 119.5t-106.5 321.5v127q0 195 107.5 315t284.5 120q183 0 280.5 -93t97.5 -260h-176q0 108 -51.5 154.5t-150.5 46.5q-103 0 -160 -76t-58 -203v-138q0 -131 57.5 -207t160.5 -76q100 0 150.5 45.5t50.5 155.5h175zM1553 819
q0 186 -84 346t-238 256t-337 96q-179 0 -332 -92t-240.5 -253.5t-87.5 -352.5t87 -353t240 -255.5t333 -93.5t334 95.5t239.5 257t85.5 349.5zM97 819q0 227 105 421t290.5 306t401.5 112t401.5 -112t290.5 -306t105 -421q0 -229 -106.5 -424t-291.5 -306t-399 -111
q-217 0 -401.5 112t-290 306.5t-105.5 422.5z" />
    <glyph glyph-name="ordfeminine" unicode="&#xaa;" horiz-adv-x="1021" 
d="M678 792q-11 30 -19 76q-86 -92 -226 -92q-132 0 -205.5 69t-73.5 187q0 124 94.5 192t288.5 68h114v57q0 142 -130 142q-73 0 -114 -28.5t-41 -82.5l-194 16q0 117 98 189.5t251 72.5q152 0 239.5 -81t87.5 -230v-355q0 -109 29 -200h-199zM482 938q45 0 92 20.5
t77 48.5v153h-119q-85 -1 -133.5 -34.5t-48.5 -88.5q0 -99 132 -99z" />
    <glyph glyph-name="guillemotleft" unicode="&#xab;" horiz-adv-x="1149" 
d="M340 588l270 -448h-209l-315 438v22l315 438h209zM773 588l269 -448h-209l-314 438v22l314 438h209z" />
    <glyph glyph-name="logicalnot" unicode="&#xac;" horiz-adv-x="1268" 
d="M1079 420h-224v292h-713v192h937v-484z" />
    <glyph glyph-name="softhyphen" unicode="&#xad;" horiz-adv-x="892" 
d="M756 569h-632v262h632v-262z" />
    <glyph glyph-name="registered" unicode="&#xae;" horiz-adv-x="1804" 
d="M97 819q0 227 105 421t290.5 306t401.5 112t401.5 -112t290.5 -306t105 -421q0 -229 -106.5 -424t-291.5 -306t-399 -111q-217 0 -401.5 112t-290 306.5t-105.5 422.5zM1553 819q0 186 -84 346t-238 256t-337 96q-179 0 -332 -92t-240.5 -253.5t-87.5 -352.5t87 -353
t240 -255.5t333 -93.5t334 95.5t239.5 257t85.5 349.5zM732 733v-378h-169v954h315q170 0 267.5 -76.5t97.5 -218.5q0 -126 -127 -195q69 -35 96.5 -97.5t27.5 -154.5t4 -130t15 -64v-18h-174q-15 38 -15 218q0 85 -37 122.5t-123 37.5h-178zM732 884h153q83 0 136.5 36
t53.5 94q0 79 -40 112t-144 34h-159v-276z" />
    <glyph glyph-name="macron" unicode="&#xaf;" horiz-adv-x="1152" 
d="M986 1449h-820v187h820v-187z" />
    <glyph glyph-name="degree" unicode="&#xb0;" horiz-adv-x="893" 
d="M142 1348q0 128 90.5 219t214.5 91q122 0 211.5 -90.5t89.5 -219.5t-89.5 -217.5t-211.5 -88.5q-121 0 -213 88.5t-92 217.5zM447 1208q59 0 98 40t39 100q0 58 -39 100.5t-98.5 42.5t-99.5 -42.5t-40 -101t41 -99t99 -40.5z" />
    <glyph glyph-name="plusminus" unicode="&#xb1;" horiz-adv-x="1235" 
d="M760 1058h369v-271h-369v-409h-284v409h-376v271h376v385h284v-385zM1097 1h-970v264h970v-264z" />
    <glyph glyph-name="twosuperior" unicode="&#xb2;" horiz-adv-x="857" 
d="M778 749h-696v155l322 289q63 55 90.5 102t27.5 73q0 94 -106 94q-57 0 -90 -34.5t-33 -87.5h-231q0 130 96 219t247 89q167 0 257 -72.5t90 -206.5q0 -79 -40 -144t-162 -163l-166 -129h394v-184z" />
    <glyph glyph-name="threesuperior" unicode="&#xb3;" horiz-adv-x="857" 
d="M307 1276h92q133 0 133 99q0 39 -32 62.5t-87 23.5q-47 0 -80 -17.5t-33 -49.5h-230q0 114 94.5 183t242.5 69q162 0 258 -66.5t96 -186.5q0 -134 -151 -190q168 -46 168 -207q0 -118 -102.5 -189t-268.5 -71q-160 0 -256.5 74.5t-96.5 202.5h231q0 -38 38.5 -65.5
t96.5 -27.5q67 0 97 29.5t30 69.5q0 103 -137 104h-103v153z" />
    <glyph glyph-name="acute" unicode="&#xb4;" horiz-adv-x="763" 
d="M335 1725h353l-311 -348h-264z" />
    <glyph glyph-name="mu" unicode="&#xb5;" horiz-adv-x="1416" 
d="M481 1215v-700q0 -141 45.5 -208t156.5 -67q167 0 230 118v857h325v-1215h-303l-6 76q-100 -100 -253 -100q-114 0 -195 51v-494h-325v1682h325z" />
    <glyph glyph-name="paragraph" unicode="&#xb6;" horiz-adv-x="1126" 
d="M730 0v584h-90q-258 0 -407 142.5t-149 383.5q0 239 149.5 382t407.5 143h335v-1635h-246z" />
    <glyph glyph-name="periodcentered" unicode="&#xb7;" horiz-adv-x="693" 
d="M157 783q0 77 52 125.5t131.5 48.5t131.5 -48.5t52 -126t-52.5 -125t-131.5 -47.5q-81 0 -132 49t-51 124z" />
    <glyph glyph-name="cedilla" unicode="&#xb8;" horiz-adv-x="615" 
d="M387 8l-12 -65q169 -31 169 -195q0 -123 -103 -195t-289 -72l-8 188q126 0 126 91q0 47 -38 64.5t-122 22.5l35 161h242z" />
    <glyph glyph-name="onesuperior" unicode="&#xb9;" horiz-adv-x="857" 
d="M593 751h-229v616l-212 -46v177l420 136h21v-883z" />
    <glyph glyph-name="ordmasculine" unicode="&#xba;" horiz-adv-x="1051" 
d="M133 1259q0 180 107 289.5t281 109.5t282 -109t108 -296v-81q0 -178 -105.5 -287.5t-282.5 -109.5t-283.5 110t-106.5 293v81zM329 1172q0 -110 52 -171.5t142 -61.5q88 0 139 60.5t52 169.5v90q0 109 -52 170.5t-141 61.5q-88 0 -140 -61t-52 -176v-82z" />
    <glyph glyph-name="guillemotright" unicode="&#xbb;" horiz-adv-x="1149" 
d="M305 1037l315 -438v-22l-315 -438h-210l270 448l-270 450h210zM747 1037l314 -438v-22l-314 -438h-210l269 448l-269 450h210z" />
    <glyph glyph-name="onequarter" unicode="&#xbc;" horiz-adv-x="1651" 
d="M555 746h-229v615l-213 -46v178l420 135h22v-882zM514 131l-158 86l798 1278l159 -86zM1462 366h99v-187h-99v-179h-230v179h-389l-13 151l401 556h231v-520zM1050 366h182v238l-16 -25z" />
    <glyph glyph-name="onehalf" unicode="&#xbd;" horiz-adv-x="1751" 
d="M467 131l-158 86l798 1278l159 -86zM536 752h-229v616l-213 -46v177l420 136h22v-883zM1659 0h-697v155l323 289q63 55 90.5 102t27.5 73q0 94 -107 94q-56 0 -89 -34.5t-33 -87.5h-232q0 130 96 218.5t248 88.5q166 0 256.5 -72t90.5 -206q0 -79 -40.5 -144t-161.5 -163
l-166 -129h394v-184z" />
    <glyph glyph-name="threequarters" unicode="&#xbe;" horiz-adv-x="1859" 
d="M695 131l-158 86l798 1278l159 -86zM1640 366h98v-187h-98v-179h-231v179h-388l-14 151l401 556h232v-520zM1227 366h182v238l-15 -25zM358 1277h92q134 0 134 99q0 39 -32 62.5t-87 23.5q-47 0 -80 -17.5t-33 -49.5h-231q0 114 95 183.5t242 69.5q163 0 259 -67t96 -187
q0 -134 -152 -190q169 -46 169 -207q0 -118 -103 -189t-269 -71q-159 0 -255.5 74.5t-96.5 202.5h231q0 -38 38 -65.5t97 -27.5q67 0 97 29.5t30 69.5q0 103 -137 104h-104v153z" />
    <glyph glyph-name="questiondown" unicode="&#xbf;" horiz-adv-x="1144" 
d="M748 722q0 -149 -35 -241t-124 -175.5t-121 -123.5t-48.5 -82t-16.5 -91q0 -176 173 -176q87 0 138 50.5t53 141.5h325q-3 -216 -138.5 -336.5t-371.5 -120.5q-239 0 -372 114t-133 325q0 178 172 350l109 105q56 50 78 105t24 155h288zM788 1066q0 -75 -51.5 -123.5
t-130 -48.5t-130 48.5t-51.5 123.5t49.5 123.5t131.5 48.5t132 -48.5t50 -123.5z" />
    <glyph glyph-name="AE" unicode="&#xc6;" horiz-adv-x="2162" 
d="M2094 0h-1007l-16 374h-500l-188 -374h-381l883 1635h1141v-265h-672l17 -399h564v-265h-553l18 -442h694v-264zM711 651h349l-27 641z" />
    <glyph glyph-name="multiply" unicode="&#xd7;" horiz-adv-x="1222" 
d="M73 419l345 351l-345 352l191 189l341 -350l343 350l191 -189l-345 -352l345 -351l-191 -189l-343 348l-341 -348z" />
    <glyph glyph-name="Oslash" unicode="&#xd8;" horiz-adv-x="1585" 
d="M1497 781q0 -242 -85.5 -424t-244.5 -280.5t-364 -98.5q-184 0 -331 78l-96 -163h-211l161 272q-222 219 -222 623v64q0 242 87.5 425.5t246 282t363.5 98.5q196 0 352 -92l83 139h210l-150 -255q201 -223 201 -603v-66zM446 781q0 -194 55 -321l502 851q-82 68 -202 68
q-170 0 -262 -132t-93 -387v-79zM1157 855q0 169 -43 287l-494 -835q79 -53 183 -53q170 0 261.5 133t92.5 388v80z" />
    <glyph glyph-name="Thorn" unicode="&#xde;" horiz-adv-x="1399" 
d="M474 1635v-300h258q182 -1 316.5 -63t206 -177.5t71.5 -265.5q0 -227 -155.5 -364t-424.5 -143h-272v-322h-325v1635h325zM474 1074v-490h250q132 0 205 66.5t73 176.5t-71.5 177t-197.5 70h-259z" />
    <glyph glyph-name="germandbls" unicode="&#xdf;" horiz-adv-x="1451" 
d="M476 0h-324v1236q0 248 139 381.5t393 133.5q214 0 344 -112t130 -304q0 -121 -60 -218.5t-60 -184.5q0 -41 34 -85.5t133 -132.5q170 -150 170 -316q0 -199 -129.5 -309.5t-370.5 -110.5q-91 0 -180 17.5t-133 44.5l60 258q110 -59 246 -59q89 0 136 41t47 112
q0 52 -38.5 100.5t-130.5 122.5q-169 135 -169 304q0 107 62 209t62 190q0 79 -50 125.5t-127 46.5q-178 0 -184 -239v-1251z" />
    <glyph glyph-name="ae" unicode="&#xe6;" horiz-adv-x="1942" 
d="M1399 -22q-277 0 -433 165q-72 -78 -187 -121.5t-256 -43.5q-209 0 -329 99.5t-120 280.5q0 177 139.5 273.5t412.5 97.5h188v64q0 85 -45.5 133.5t-131.5 48.5q-92 0 -145.5 -40t-53.5 -98l-325 21q0 167 147 273.5t380 106.5q237 0 367 -124q142 126 366 124
q239 0 374.5 -148t135.5 -408v-177h-750q13 -130 91 -198.5t209 -68.5q86 0 160 18t171 69l87 -213q-82 -63 -203 -98.5t-249 -35.5zM585 216q55 0 120 25t109 64v213h-184q-107 -1 -169 -48.5t-62 -115.5q0 -63 45.5 -100.5t140.5 -37.5zM1373 975q-101 0 -162 -64.5
t-76 -187.5h429v32q0 105 -48.5 162.5t-142.5 57.5z" />
    <glyph glyph-name="divide" unicode="&#xf7;" horiz-adv-x="1312" 
d="M1225 641h-1154v259h1154v-259zM466 1223q0 76 51 123.5t132 47.5q80 0 132 -47t52 -124q0 -75 -50.5 -121.5t-133.5 -46.5q-84 0 -133.5 47t-49.5 121zM466 311q0 76 51 123.5t132 47.5q80 0 132 -46.5t52 -124.5q0 -75 -50.5 -121.5t-133.5 -46.5q-84 0 -133.5 47
t-49.5 121z" />
    <glyph glyph-name="oslash" unicode="&#xf8;" horiz-adv-x="1323" 
d="M953 1466q287 -295 288 -735v-83q0 -193 -74.5 -347t-208.5 -238.5t-299 -84.5q-161 0 -290.5 71t-202 197.5t-72.5 279.5q0 259 138.5 409t369.5 150q153 0 274 -85q-55 170 -186 297l-215 -137l-88 128l171 109q-130 81 -296 125l102 251q267 -54 467 -202l192 123
l87 -128zM916 745q-76 93 -241 93q-127 0 -191.5 -84t-64.5 -228q0 -126 67.5 -206.5t177.5 -80.5q115 0 183.5 101.5t68.5 279.5v125z" />
    <glyph glyph-name="uni02BC" unicode="&#x2bc;" horiz-adv-x="528" 
d="M218 1133l-153 89q97 151 100 313v190h258v-174q0 -101 -56 -219t-149 -199z" />
    <glyph glyph-name="circumflex" unicode="&#x2c6;" horiz-adv-x="1140" 
d="M996 1411v-14h-258l-173 163l-173 -163h-254v18l333 310h188z" />
    <glyph glyph-name="caron" unicode="&#x2c7;" horiz-adv-x="1083" 
d="M538 1566l164 160h277v-12l-339 -316h-205l-340 318v10h278z" />
    <glyph glyph-name="uni02C9" unicode="&#x2c9;" horiz-adv-x="1152" 
d="M986 1449h-820v187h820v-187z" />
    <glyph glyph-name="breve" unicode="&#x2d8;" horiz-adv-x="1021" 
d="M896 1714q0 -150 -107 -242t-281 -92t-281.5 91t-107.5 243h230q0 -71 42 -109.5t117 -38.5q73 0 114.5 38.5t41.5 109.5h232z" />
    <glyph glyph-name="dotaccent" unicode="&#x2d9;" horiz-adv-x="610" 
d="M299 1697q77 0 121.5 -43.5t44.5 -110.5t-44.5 -110t-121.5 -43t-121.5 43t-44.5 110t45 110.5t121 43.5z" />
    <glyph glyph-name="ring" unicode="&#x2da;" horiz-adv-x="766" 
d="M134 1488q0 97 73 163.5t177 66.5q103 0 177 -65.5t74 -164.5q0 -95 -72 -160.5t-179 -65.5q-109 0 -179.5 66.5t-70.5 159.5zM263 1488q0 -49 32.5 -84.5t88.5 -35.5t88.5 35.5t32.5 84.5q0 52 -33 87t-88 35t-88 -35t-33 -87z" />
    <glyph glyph-name="ogonek" unicode="&#x2db;" horiz-adv-x="692" 
d="M454 0q-83 -47 -128 -92.5t-45 -105.5q0 -73 74 -73q37 0 90 23l32 -177q-82 -49 -185 -49q-112 0 -183.5 62.5t-71.5 172.5q0 193 251 306z" />
    <glyph glyph-name="tilde" unicode="&#x2dc;" horiz-adv-x="1106" 
d="M977 1712q0 -127 -74 -213t-181 -86q-43 0 -76 9.5t-91.5 41t-84 38.5t-56.5 7q-39 0 -66.5 -28t-27.5 -79l-189 11q0 124 74 212t180 88q34 0 63.5 -8.5t97 -41t93.5 -39.5t54 -7q39 0 68 27.5t29 79.5z" />
    <glyph glyph-name="hungarumlaut" unicode="&#x2dd;" horiz-adv-x="943" 
d="M712 1724h291l-299 -338h-245zM273 1724h286l-257 -338h-238z" />
    <glyph glyph-name="uni02F3" unicode="&#x2f3;" horiz-adv-x="722" 
d="M371 -64q91 0 149 -57.5t58 -137t-58 -134.5t-149 -55q-90 0 -151 54t-61 136t61 138t151 56zM286 -258q0 -36 24.5 -59.5t60.5 -23.5t58 23.5t22 59.5q0 38 -22 62t-58 24t-60.5 -24t-24.5 -62z" />
    <glyph glyph-name="gravecomb" unicode="&#x300;" 
d="M-430 1377h-266l-310 348h355z" />
    <glyph glyph-name="acutecomb" unicode="&#x301;" 
d="M-546 1725h355l-312 -348h-263z" />
    <glyph glyph-name="tildecomb" unicode="&#x303;" 
d="M-195 1712q0 -127 -74.5 -213t-180.5 -86q-43 0 -76 9.5t-91.5 41t-84.5 38.5t-56 7q-39 0 -66.5 -28t-27.5 -79l-189 11q0 124 73.5 212t180.5 88q33 0 63 -8.5t97.5 -41t93 -39.5t53.5 -7q40 0 68.5 27.5t28.5 79.5z" />
    <glyph glyph-name="hookabovecomb" unicode="&#x309;" 
d="M-806 1423l-17 150q82 5 118.5 21t36.5 52q0 78 -160 78l8 151q211 0 318.5 -58t107.5 -161q0 -66 -46 -108t-123 -53v-72h-243z" />
    <glyph glyph-name="uni030F" unicode="&#x30f;" 
d="M-572 1406h-268l-328 299h321zM-191 1406h-262l-275 299h315z" />
    <glyph glyph-name="dotbelowcomb" unicode="&#x323;" 
d="M-855 -263q0 68 50.5 111.5t130.5 43.5q81 0 131.5 -43.5t50.5 -111.5q0 -66 -50 -111t-132 -45t-131.5 45t-49.5 111z" />
    <glyph glyph-name="uni060C" unicode="&#x60c;" horiz-adv-x="630" 
d="M565 149q0 -61 -51 -121q-65 -72 -165 -72q-114 0 -180 87q-57 75 -57 185q0 256 284 459q10 -7 32 -24t47 -37t48.5 -38.5t36.5 -28.5q-81 -60 -133 -115t-72 -100q44 6 80.5 -7t63.5 -40t44 -65t22 -81v-2v0z" />
    <glyph glyph-name="uni0615" unicode="&#x615;" 
d="M-81 1198q-44 0 -85.5 3.5t-84 12t-86.5 21.5t-92 32l43 107q35 -14 62 -23t51 -15q12 15 25 33.5t32 54.5q4 16 4.5 43t-1 58.5t-4.5 65t-5 62.5q-2 23 -4 45.5t-5 48.5t-7 56.5t-9 68.5l116 32q8 -93 19 -184t12 -188q91 79 180 94q34 5 70.5 -3t68 -27.5t53.5 -49.5
t25 -69q4 -53 -13.5 -94t-49 -72t-73.5 -52.5t-85.5 -35t-84.5 -19.5t-72 -6zM-164 1315q23 -1 38 -1h29q26 0 62 3t74 11.5t74.5 23.5t63.5 39q14 14 22.5 31.5t8.5 31.5q0 28 -30 45.5t-80 12.5q-29 -3 -63.5 -20.5t-70 -44.5t-68.5 -61.5t-60 -70.5z" />
    <glyph glyph-name="uni061B" unicode="&#x61b;" horiz-adv-x="512" 
d="M435 125q0 -34 -14 -64.5t-37 -53.5t-54 -36.5t-65 -13.5q-35 0 -66 13t-54 35.5t-36.5 53.5t-13.5 66t13.5 66t36.5 54t54 36.5t66 13.5q34 0 65 -14t54.5 -37t37 -54t13.5 -65zM469 608q0 -39 -16 -74t-43 -61.5t-63 -42t-75 -15.5q-112 0 -179 87q-27 36 -43.5 83.5
t-16.5 101.5q0 260 232 408l149 -142q-69 -43 -105 -79t-47 -78q45 6 81.5 -5t63.5 -36t43 -62.5t19 -84.5z" />
    <glyph glyph-name="uni061F" unicode="&#x61f;" horiz-adv-x="1024" 
d="M408 419q0 55 -1.5 95t-3.5 67.5t-5.5 44t-7.5 25.5q-10 22 -38 50t-74 63q-88 78 -144 137.5t-84 104.5q-54 85 -54 184q0 91 39 170t109 145q149 131 383 131q237 0 363 -129v1q127 -127 119 -349l-270 -30q-3 149 -67 206q-63 57 -157 57q-44 0 -87 -11t-78.5 -35
t-58 -61t-24.5 -88q-3 -45 41.5 -100.5t119.5 -112.5q85 -63 140.5 -115.5t77.5 -94.5q17 -35 26.5 -78.5t9.5 -94.5v-182h-274zM561 -154l-222 222l222 222l222 -222z" />
    <glyph glyph-name="uni0640" unicode="&#x640;" horiz-adv-x="907" 
d="M927 256v-316h-947v316h947z" />
    <glyph glyph-name="uni064B" unicode="&#x64b;" 
d="M280 1830l-566 -199v144l566 191v-136zM280 2089l-566 -199v144l566 191v-136z" />
    <glyph glyph-name="uni064C" unicode="&#x64c;" 
d="M-223 1658q5 8 15 23.5t20.5 34t18.5 37.5t8 33q0 12 -1 22t-6 17q-2 5 -10 11t-17 7q-11 0 -29.5 -8t-38 -18.5t-36 -21.5t-21.5 -16l-75 91q5 4 21 18.5t41 30t56.5 27.5t67.5 11q40 -2 73.5 -24t52.5 -55q19 -40 22 -81t-6 -83q22 7 50 16.5t56.5 20.5t55.5 22.5
t46 22.5l-7 4q-113 58 -155 126.5t-4 143.5q14 28 35.5 52.5t48 42.5t56 28t59.5 10q62 0 106.5 -38.5t61.5 -98.5q13 -47 10.5 -103t-16.5 -100l32 -17l-38 -118l-59 17q-31 -29 -72 -53t-86 -44t-89.5 -35t-82 -25.5t-64 -16.5t-34.5 -7zM167 2078q-19 0 -47.5 -14.5
t-47.5 -40.5q-9 -12 10 -35.5t59 -43.5l72 -35q5 20 8 43.5t0.5 46.5t-12.5 43.5t-31 33.5l-8 1q-2 1 -3 1z" />
    <glyph glyph-name="uni064D" unicode="&#x64d;" 
d="M280 -717l-566 -199v144l566 191v-136zM280 -458l-566 -199v144l566 191v-136z" />
    <glyph glyph-name="uni064E" unicode="&#x64e;" 
d="M278 1841l-566 -199v144l566 191v-136z" />
    <glyph glyph-name="uni064F" unicode="&#x64f;" 
d="M-310 1667q24 7 64 18t85 26t90.5 34t81.5 42l-62 27q-35 18 -63.5 45.5t-45.5 60.5t-19.5 69.5t15.5 72.5q18 34 49 63.5t69.5 47.5t79.5 21t79 -15q29 -14 50.5 -36.5t36 -49.5t21.5 -58t7 -62t-5.5 -61.5t-12.5 -55.5l34 -8l-40 -128l-57 16q-44 -36 -102 -67.5
t-114.5 -56t-103.5 -41.5t-69 -24l-30 -8zM31 2069q-23 0 -52.5 -18.5t-45.5 -46.5q-1 -12 15.5 -28t40.5 -32.5t52 -30.5t51 -22q4 14 4 40.5t-5.5 53.5t-17 50t-30.5 31q-6 3 -12 3z" />
    <glyph glyph-name="uni0650" unicode="&#x650;" 
d="M281 -475l-566 -199v144l566 191v-136z" />
    <glyph glyph-name="uni0651" unicode="&#x651;" 
d="M-139 1748q-41 1 -74.5 15t-57.5 37.5t-37.5 55.5t-13.5 71q0 26 5.5 52.5t13.5 49.5t15.5 40.5t12.5 24.5l102 -54q-11 -22 -22 -51t-12 -55.5t12 -45t49 -18.5q29 0 45.5 16t24.5 39.5t10 50t2 47.5l109 47q-7 -57 2.5 -94.5t27 -58.5t40 -27t42 0t33 22.5t13.5 39.5
q0 21 -10 46t-25 49.5t-32.5 47.5t-32.5 41l105 73q7 -10 23.5 -36t33.5 -61t30 -75t13 -77t-15 -72t-40.5 -62.5t-59 -44.5t-70.5 -17q-25 0 -57 9t-61 39q-52 -64 -136 -64h-8z" />
    <glyph glyph-name="uni0652" unicode="&#x652;" 
d="M1 1848q21 0 40 10.5t33.5 27t22.5 36.5t8 39t-8 38.5t-22.5 36t-33.5 27t-40 10.5t-40 -10.5t-33 -27t-22.5 -36t-8.5 -38.5t8.5 -39t22.5 -36.5t33 -27t40 -10.5zM1 2180q50 0 90.5 -19.5t69 -50.5t44 -70t15.5 -79t-16 -79t-44.5 -70.5t-69 -51t-89.5 -19.5
q-50 0 -90.5 19.5t-69 50.5t-44 70.5t-15.5 79.5t16 79.5t44.5 70.5t69 50t89.5 19z" />
    <glyph glyph-name="uni0653" unicode="&#x653;" 
d="M-368 1529q9 50 35 96t62 81t79.5 55.5t89.5 20.5q47 0 83.5 -11t68.5 -25q43 -18 75.5 -23.5t60 3.5t53 32t54.5 61l137 -88q-1 -3 -11 -17t-27.5 -34t-42.5 -42.5t-56 -42t-67 -32.5t-76 -14t-73 9t-64 22t-63.5 21.5t-70.5 8.5q-26 -1 -42 -16.5t-25 -36.5t-13.5 -43
t-8.5 -34z" />
    <glyph glyph-name="uni0654" unicode="&#x654;" 
d="M121 1912q-26 4 -46.5 8t-39 6.5t-36 1t-36.5 -8.5q-20 -8 -36 -21t-26.5 -31t-12.5 -39.5t7 -46.5q6 -18 21.5 -29.5t33.5 -18.5t37 -8t33 2t23.5 6t26.5 10.5t48 23.5t89 46l76 -102l-257 -150l-240 -133l-62 113l166 93q-34 20 -60.5 50t-41.5 65q-17 42 -14.5 85
t20.5 82t49 70.5t72 49.5q25 11 51 15.5t53 4.5q13 0 25.5 -1t28 -3.5t36 -7t49.5 -11.5z" />
    <glyph glyph-name="uni0655" unicode="&#x655;" 
d="M130 -249q-26 4 -46.5 8t-39 6.5t-36 1t-36.5 -8.5q-20 -8 -36 -21t-26.5 -31t-12.5 -39.5t7 -46.5q6 -18 21.5 -29.5t33.5 -18.5t37 -8t33 2t23.5 6t26.5 10.5t48 23.5t89 46l76 -102l-257 -150l-240 -133l-62 113l166 93q-34 20 -60.5 50t-41.5 65q-17 42 -14.5 85
t20.5 82t49 70.5t72 49.5q25 11 51 15.5t53 4.5q13 0 25.5 -1t28 -3.5t36 -7t49.5 -11.5z" />
    <glyph glyph-name="uni0656" unicode="&#x656;" 
d="M-80 -876q13 58 19 107.5t6 89.5q0 42 -6 102.5t-19 118.5l131 47q6 -27 11 -59t8 -65t5 -65.5t2 -61.5q0 -54 -5.5 -117.5t-19.5 -144.5z" />
    <glyph glyph-name="uni0660" unicode="&#x660;" horiz-adv-x="990" 
d="M362 543q0 -31 11.5 -58t32 -47.5t47.5 -32t58 -11.5t58.5 11.5t48 32t32.5 47.5t12 58t-12 58.5t-32.5 48t-48 32.5t-58.5 12t-58 -12t-47.5 -32.5t-32 -48t-11.5 -58.5zM137 543q0 77 29.5 145.5t80 119.5t118.5 81t146 30q77 0 145.5 -30t119.5 -81t81 -119.5
t30 -145.5q0 -78 -30 -146t-81 -118.5t-119.5 -80t-145.5 -29.5q-78 0 -146 29.5t-118.5 80t-80 118.5t-29.5 146z" />
    <glyph glyph-name="uni0661" unicode="&#x661;" horiz-adv-x="662" 
d="M261 -58q0 132 -1.5 267.5t-8 268t-18.5 260.5t-33.5 245.5t-53.5 221.5t-78 190l255 159q52 -81 87 -170t58.5 -184.5t39 -196t29.5 -204.5q10 -80 16 -173t9.5 -189t4.5 -190t1 -176v-129h-307v0z" />
    <glyph glyph-name="uni0662" unicode="&#x662;" horiz-adv-x="1137" 
d="M1029 1530q11 -72 17 -132t6 -111q0 -95 -28 -187.5t-83.5 -166t-138.5 -119t-193 -45.5q-26 0 -50.5 1.5t-47.5 5.5q12 -103 18.5 -214t9.5 -222.5t3.5 -218.5t0.5 -201h-307q0 168 -3.5 338t-16 329t-36.5 300.5t-64 253.5q-17 41 -28.5 70t-22.5 53t-22.5 46t-26.5 49
l258 164q21 -33 36 -60.5t28.5 -56t27.5 -62t32 -76.5q18 -42 37.5 -78t44.5 -62t56.5 -40.5t72.5 -13.5q52 1 79.5 24t40 57.5t14 77t1.5 82.5q0 38 -4.5 74.5t-12.5 86.5l302 54v0z" />
    <glyph glyph-name="uni0663" unicode="&#x663;" horiz-adv-x="1439" 
d="M1374 1532q12 -64 20 -109.5t12.5 -80t6.5 -62.5t2 -58q0 -77 -20 -153t-62.5 -136.5t-108 -98.5t-155.5 -38q-25 0 -54.5 4t-60.5 14t-62 27.5t-59 44.5q-51 -55 -111.5 -81.5t-144.5 -26.5q-19 0 -36.5 0.5t-34.5 3.5q11 -94 18 -204t10.5 -224t5 -225.5t1.5 -207.5
h-310q1 20 2 52.5t1.5 67.5t1 67.5t0.5 52.5q0 88 -2.5 186.5t-10.5 202t-22.5 209.5t-38 209t-58.5 199t-83 181l273 159q15 -23 28 -46.5t27.5 -53t31.5 -67t39 -87.5q22 -51 37.5 -83.5t31.5 -51.5t36 -26.5t52 -7.5q28 0 45.5 14t28 37.5t14.5 54.5t4 64q0 37 -4 79
t-10 104l282 40q3 -28 7 -66.5t10 -80t15 -82.5t22.5 -73t32.5 -52t45 -20q18 0 29 12.5t17 31t8.5 39t2.5 37.5q0 14 -1 30t-5 43t-11 69.5t-19 109.5l284 57v0z" />
    <glyph glyph-name="uni0664" unicode="&#x664;" horiz-adv-x="1258" 
d="M804 636q-72 0 -141 13.5t-132 44.5q12 -108 19 -208t11 -194.5t5 -184t1 -177.5h-307q0 202 -8 399.5t-33.5 379.5t-74 342.5t-130.5 288.5l259 163q32 -54 60 -101t49 -95q36 54 85 93.5t105.5 65.5t118.5 39t124 13q43 0 86.5 -6t87.5 -21t87.5 -40t85.5 -63
l-160 -252q0 1 -17.5 12.5t-49 25.5t-74.5 25.5t-94 11.5q-43 0 -87 -16t-79 -40.5t-55.5 -54.5t-15.5 -57v1q6 -32 35.5 -52t70 -32t84.5 -16.5t80 -4.5q35 0 76 5.5t83.5 16.5t83.5 27.5t76 38.5l129 -240q-118 -86 -229.5 -118.5t-214.5 -32.5z" />
    <glyph glyph-name="uni0665" unicode="&#x665;" horiz-adv-x="1379" 
d="M933 -91q-72 0 -134.5 29.5t-107.5 77.5q-49 -51 -111.5 -78.5t-135.5 -27.5q-92 0 -162.5 44t-118.5 113.5t-72.5 155.5t-24.5 169q0 122 30 239t80.5 232t116.5 229t138 231q-10 11 -22 22.5t-21 21.5l214 215q78 -77 163.5 -159t167.5 -170.5t156 -184.5t129.5 -200
t88.5 -217t33 -236q0 -93 -23.5 -182t-72.5 -159.5t-126 -115.5t-183 -49h-2zM832 548q0 -27 1.5 -62.5t6 -72.5t11.5 -73t17.5 -64t26 -45.5t35.5 -16.5q29 1 54.5 19.5t44 47t29.5 62.5t11 66q0 95 -39 188t-101 182t-141 173.5t-158 164.5q-57 -78 -112 -165.5
t-97.5 -182t-68.5 -194t-26 -200.5q0 -32 9.5 -61t26 -50.5t37.5 -34t45 -12.5q13 0 28 8.5t30 24t28.5 38t22.5 50.5q6 18 10.5 38t9 44.5t8.5 55.5l11 74z" />
    <glyph glyph-name="uni0666" unicode="&#x666;" horiz-adv-x="1176" 
d="M59 5q6 35 29 91t57 122.5t75.5 136t84 132t82.5 110.5t71 71q-62 13 -115 46t-93 81.5t-62.5 109.5t-22.5 129q0 103 45.5 190t120 150t170.5 98.5t197 35.5q81 0 163 -27.5t172 -78.5l-139 -230q-31 14 -58.5 21.5t-53 10.5t-49.5 3.5t-47 0.5q-33 0 -76 -10.5
t-81 -31.5t-64 -53t-26 -75q0 -32 18 -52t44.5 -31t56.5 -14t54 -1q45 -1 95 6.5t103 19.5t107 27.5t107 30.5l109 -264q-144 -55 -255 -131t-194.5 -160.5t-142 -170.5t-97.5 -161.5t-62.5 -134t-35.5 -87.5l-287 90v0z" />
    <glyph glyph-name="uni0667" unicode="&#x667;" horiz-adv-x="1291" 
d="M519 -83q0 237 -40.5 440t-106.5 379.5t-151.5 331.5t-175.5 298l257 165q72 -119 130 -239.5t105 -240.5t84 -237.5t67 -229.5q24 87 51 180t56 184.5t59 179t60 164t59.5 139.5t57.5 106l256 -163q-38 -60 -76.5 -135t-76 -160.5t-74 -179.5t-70.5 -191
q-78 -226 -120.5 -422.5t-44.5 -368.5h-306v0z" />
    <glyph glyph-name="uni0668" unicode="&#x668;" horiz-adv-x="1351" 
d="M1071 -94q-27 42 -57.5 102t-62 132.5t-63.5 154.5t-63 168.5t-59 174t-52 171.5q-33 -106 -73 -218t-89 -227t-108 -232t-129 -232l-257 164q90 143 175 299.5t151.5 334.5t106.5 382t40 442l325 -1q3 -109 25.5 -239t58.5 -266.5t83 -274t98 -262.5t104 -231t101 -180
l-255 -162v0z" />
    <glyph glyph-name="uni0669" unicode="&#x669;" horiz-adv-x="1098" 
d="M877 799q3 -103 19 -211t41.5 -207t58.5 -181t70 -131l-233 -181q-41 44 -72 103.5t-53 128t-37 142.5t-24.5 147.5t-14.5 143t-8 128.5q-35 -4 -78.5 -5.5t-77.5 -1.5q-85 0 -160.5 18t-133 62.5t-93.5 118.5t-42 186q0 57 14 116.5t40 115t62.5 104t81 84t96 55.5
t108.5 18q39 -2 84.5 -14.5t91 -43t89.5 -84.5t80 -138q21 -51 37.5 -114t27.5 -127t17.5 -125t8.5 -107zM450 985q15 0 34.5 0.5t40.5 1.5t40.5 2.5t33.5 3.5q-5 35 -18.5 78t-35 82t-52 67.5t-68.5 33.5q-23 3 -47.5 -16t-44.5 -48.5t-33.5 -63.5t-13.5 -62
q0 -24 15 -39.5t39 -24.5t53 -12t57 -3z" />
    <glyph glyph-name="uni066A" unicode="&#x66a;" horiz-adv-x="1217" 
d="M715 209l244 243l245 -245l-244 -243zM-8 1329l244 243l245 -245l-244 -243zM1086 1629l-641 -1690h-348l637 1690h352z" />
    <glyph glyph-name="uni066B" unicode="&#x66b;" horiz-adv-x="689" 
d="M687 978l-517 -1164h-233l518 1164h232z" />
    <glyph glyph-name="uni066C" unicode="&#x66c;" horiz-adv-x="511" 
d="M51 156q0 38 17 71t44.5 57.5t63 38.5t73.5 15q54 1 95.5 -19t70.5 -55t44 -81.5t16 -97.5q2 -151 -90 -274t-287 -221l-72 174q115 51 177 108.5t73 117.5q-14 -3 -27 -4t-27 -2q-84 -1 -127.5 42t-43.5 130z" />
    <glyph glyph-name="uni066D" unicode="&#x66d;" horiz-adv-x="1126" 
d="M163 715l227 307l-110 9l-238 18l39 269l381 -108q-2 23 -5.5 46t-5.5 46l-31 289h283l-42 -382l387 109l36 -269l-352 -27l112 -148l119 -159l-245 -132l-159 323l-144 -324z" />
    <glyph glyph-name="uni066E" unicode="&#x66e;" horiz-adv-x="2013" 
d="M994 -60q-90 0 -194 7t-208 28t-201.5 59t-174 99t-125 148.5t-54.5 208.5q0 59 13 114.5t34.5 108.5t49 104.5t56.5 103.5l235 -197q-15 -21 -35 -54.5t-38.5 -70.5t-31 -74.5t-12.5 -65.5q0 -37 27.5 -66t75 -51.5t113 -38t142 -26t160 -15t168.5 -4.5q71 0 161.5 7
t186.5 22.5t191 40t174 59.5q-12 47 -28.5 90t-40.5 89.5t-57 99.5t-78 121l246 160q18 -29 42 -71t48.5 -90.5t48 -102.5t42 -108t28.5 -105.5t8 -96.5q-5 -84 -58 -148.5t-135.5 -112.5t-186 -81t-210 -53t-206.5 -29t-176 -9z" />
    <glyph glyph-name="uni066F" unicode="&#x66f;" horiz-adv-x="1581" 
d="M775 -381q87 0 162.5 24t137 66.5t107.5 101.5t73 129q-159 1 -278 21.5t-199 68t-121.5 126t-45.5 195.5q0 54 13.5 116.5t39 124t63 118t84.5 99.5t104 69t122 26q96 0 172.5 -40t135 -106.5t99 -152.5t65 -178t32.5 -183.5t2 -168.5q0 -98 -27.5 -193.5t-77.5 -181.5
t-120.5 -159t-156 -126.5t-184.5 -83.5t-206 -30q-152 0 -287.5 48.5t-237 139t-161 219t-59.5 289.5q0 75 7.5 143.5t24 136t43.5 137t66 146.5l252 -106q-39 -72 -63.5 -134.5t-38 -118t-18.5 -106t-5 -97.5q0 -89 40 -160t106.5 -120t153.5 -74.5t181 -24.5zM1037 585
q-29 3 -61 -17t-57.5 -54t-39 -76t-3.5 -82q9 -38 38.5 -58t80 -29.5t121 -11t161.5 -1.5q-3 42 -21 96.5t-49.5 104t-74.5 86t-95 42.5z" />
    <glyph glyph-name="uni0670" unicode="&#x670;" 
d="M-85 1693q13 58 19 107.5t6 89.5q0 42 -6 102.5t-19 118.5l131 47q6 -27 11 -59t8 -65t5 -65.5t2 -61.5q0 -54 -5.5 -117.5t-19.5 -144.5z" />
    <glyph glyph-name="uni06C2" unicode="&#x6c2;" horiz-adv-x="993" 
d="M485 -60q-81 0 -163.5 28t-150 80.5t-110 128t-42.5 170.5q0 200 177 415q14 17 23.5 28t17.5 20t15 16l18 18l-61 52l199 243q51 -38 121.5 -102.5t164.5 -164.5q259 -295 259 -525q0 -100 -41 -176t-107 -127.5t-150 -77.5t-170 -26zM679 347q0 31 -20 70t-52.5 81.5
t-72.5 86t-80 83.5q-27 -30 -57 -67.5t-55 -79.5t-41 -86.5t-14 -87.5q1 -24 23 -42t52.5 -29t64.5 -16.5t58 -5.5q30 0 64.5 4.5t63 15.5t47.5 29t19 44zM534 1628q-26 4 -46.5 8t-39 6.5t-36 1t-36.5 -8.5q-20 -8 -36 -21t-26.5 -31t-12.5 -39.5t7 -46.5q6 -18 21.5 -29.5
t33.5 -18.5t37 -8t33 2t23.5 6t26.5 10.5t48 23.5t89 46l76 -102l-257 -150l-240 -133l-62 113l166 93q-34 20 -60.5 50t-41.5 65q-17 42 -14.5 85t20.5 82t49 70.5t72 49.5q25 11 51 15.5t53 4.5q13 0 25.5 -1t28 -3.5t36 -7t49.5 -11.5z" />
    <glyph glyph-name="uni06C3" unicode="&#x6c3;" horiz-adv-x="983" 
d="M485 -60q-81 0 -163.5 28t-150 80.5t-110 128t-42.5 170.5q0 200 177 415q14 17 23.5 28t17.5 20t15 16l18 18l-61 52l199 243q51 -38 121.5 -102.5t164.5 -164.5q259 -295 259 -525q0 -100 -41 -176t-107 -127.5t-150 -77.5t-170 -26zM679 347q0 31 -20 70t-52.5 81.5
t-72.5 86t-80 83.5q-27 -30 -57 -67.5t-55 -79.5t-41 -86.5t-14 -87.5q1 -24 23 -42t52.5 -29t64.5 -16.5t58 -5.5q30 0 64.5 4.5t63 15.5t47.5 29t19 44zM468 1344l-188 -188l-194 193l192 193l190 -190l188 188l194 -193l-192 -193z" />
    <glyph glyph-name="uni06D5" unicode="&#x6d5;" horiz-adv-x="993" 
d="M485 -60q-81 0 -163.5 28t-150 80.5t-110 128t-42.5 170.5q0 200 177 415q14 17 23.5 28t17.5 20t15 16l18 18l-61 52l199 243q51 -38 121.5 -102.5t164.5 -164.5q259 -295 259 -525q0 -100 -41 -176t-107 -127.5t-150 -77.5t-170 -26zM679 347q0 31 -20 70t-52.5 81.5
t-72.5 86t-80 83.5q-27 -30 -57 -67.5t-55 -79.5t-41 -86.5t-14 -87.5q1 -24 23 -42t52.5 -29t64.5 -16.5t58 -5.5q30 0 64.5 4.5t63 15.5t47.5 29t19 44z" />
    <glyph glyph-name="uni06F0" unicode="&#x6f0;" horiz-adv-x="990" 
d="M362 543q0 -31 11.5 -58t32 -47.5t47.5 -32t58 -11.5t58.5 11.5t48 32t32.5 47.5t12 58t-12 58.5t-32.5 48t-48 32.5t-58.5 12t-58 -12t-47.5 -32.5t-32 -48t-11.5 -58.5zM137 543q0 77 29.5 145.5t80 119.5t118.5 81t146 30q77 0 145.5 -30t119.5 -81t81 -119.5
t30 -145.5q0 -78 -30 -146t-81 -118.5t-119.5 -80t-145.5 -29.5q-78 0 -146 29.5t-118.5 80t-80 118.5t-29.5 146z" />
    <glyph glyph-name="uni06F1" unicode="&#x6f1;" horiz-adv-x="662" 
d="M261 -58q0 132 -1.5 267.5t-8 268t-18.5 260.5t-33.5 245.5t-53.5 221.5t-78 190l255 159q52 -81 87 -170t58.5 -184.5t39 -196t29.5 -204.5q10 -80 16 -173t9.5 -189t4.5 -190t1 -176v-129h-307v0z" />
    <glyph glyph-name="uni06F2" unicode="&#x6f2;" horiz-adv-x="1137" 
d="M1029 1530q11 -72 17 -132t6 -111q0 -95 -28 -187.5t-83.5 -166t-138.5 -119t-193 -45.5q-26 0 -50.5 1.5t-47.5 5.5q12 -103 18.5 -214t9.5 -222.5t3.5 -218.5t0.5 -201h-307q0 168 -3.5 338t-16 329t-36.5 300.5t-64 253.5q-17 41 -28.5 70t-22.5 53t-22.5 46t-26.5 49
l258 164q21 -33 36 -60.5t28.5 -56t27.5 -62t32 -76.5q18 -42 37.5 -78t44.5 -62t56.5 -40.5t72.5 -13.5q52 1 79.5 24t40 57.5t14 77t1.5 82.5q0 38 -4.5 74.5t-12.5 86.5l302 54v0z" />
    <glyph glyph-name="uni06F3" unicode="&#x6f3;" horiz-adv-x="1439" 
d="M1374 1532q12 -64 20 -109.5t12.5 -80t6.5 -62.5t2 -58q0 -77 -20 -153t-62.5 -136.5t-108 -98.5t-155.5 -38q-25 0 -54.5 4t-60.5 14t-62 27.5t-59 44.5q-51 -55 -111.5 -81.5t-144.5 -26.5q-19 0 -36.5 0.5t-34.5 3.5q11 -94 18 -204t10.5 -224t5 -225.5t1.5 -207.5
h-310q1 20 2 52.5t1.5 67.5t1 67.5t0.5 52.5q0 88 -2.5 186.5t-10.5 202t-22.5 209.5t-38 209t-58.5 199t-83 181l273 159q15 -23 28 -46.5t27.5 -53t31.5 -67t39 -87.5q22 -51 37.5 -83.5t31.5 -51.5t36 -26.5t52 -7.5q28 0 45.5 14t28 37.5t14.5 54.5t4 64q0 37 -4 79
t-10 104l282 40q3 -28 7 -66.5t10 -80t15 -82.5t22.5 -73t32.5 -52t45 -20q18 0 29 12.5t17 31t8.5 39t2.5 37.5q0 14 -1 30t-5 43t-11 69.5t-19 109.5l284 57v0z" />
    <glyph glyph-name="uni06F4" unicode="&#x6f4;" horiz-adv-x="1258" 
d="M804 636q-72 0 -141 13.5t-132 44.5q12 -108 19 -208t11 -194.5t5 -184t1 -177.5h-307q0 202 -8 399.5t-33.5 379.5t-74 342.5t-130.5 288.5l259 163q32 -54 60 -101t49 -95q36 54 85 93.5t105.5 65.5t118.5 39t124 13q43 0 86.5 -6t87.5 -21t87.5 -40t85.5 -63
l-160 -252q0 1 -17.5 12.5t-49 25.5t-74.5 25.5t-94 11.5q-43 0 -87 -16t-79 -40.5t-55.5 -54.5t-15.5 -57v1q6 -32 35.5 -52t70 -32t84.5 -16.5t80 -4.5q35 0 76 5.5t83.5 16.5t83.5 27.5t76 38.5l129 -240q-118 -86 -229.5 -118.5t-214.5 -32.5z" />
    <glyph glyph-name="uni06F5" unicode="&#x6f5;" horiz-adv-x="1379" 
d="M933 -91q-72 0 -134.5 29.5t-107.5 77.5q-49 -51 -111.5 -78.5t-135.5 -27.5q-92 0 -162.5 44t-118.5 113.5t-72.5 155.5t-24.5 169q0 122 30 239t80.5 232t116.5 229t138 231q-10 11 -22 22.5t-21 21.5l214 215q78 -77 163.5 -159t167.5 -170.5t156 -184.5t129.5 -200
t88.5 -217t33 -236q0 -93 -23.5 -182t-72.5 -159.5t-126 -115.5t-183 -49h-2zM832 548q0 -27 1.5 -62.5t6 -72.5t11.5 -73t17.5 -64t26 -45.5t35.5 -16.5q29 1 54.5 19.5t44 47t29.5 62.5t11 66q0 95 -39 188t-101 182t-141 173.5t-158 164.5q-57 -78 -112 -165.5
t-97.5 -182t-68.5 -194t-26 -200.5q0 -32 9.5 -61t26 -50.5t37.5 -34t45 -12.5q13 0 28 8.5t30 24t28.5 38t22.5 50.5q6 18 10.5 38t9 44.5t8.5 55.5l11 74z" />
    <glyph glyph-name="uni06F6" unicode="&#x6f6;" horiz-adv-x="1176" 
d="M59 5q6 35 29 91t57 122.5t75.5 136t84 132t82.5 110.5t71 71q-62 13 -115 46t-93 81.5t-62.5 109.5t-22.5 129q0 103 45.5 190t120 150t170.5 98.5t197 35.5q81 0 163 -27.5t172 -78.5l-139 -230q-31 14 -58.5 21.5t-53 10.5t-49.5 3.5t-47 0.5q-33 0 -76 -10.5
t-81 -31.5t-64 -53t-26 -75q0 -32 18 -52t44.5 -31t56.5 -14t54 -1q45 -1 95 6.5t103 19.5t107 27.5t107 30.5l109 -264q-144 -55 -255 -131t-194.5 -160.5t-142 -170.5t-97.5 -161.5t-62.5 -134t-35.5 -87.5l-287 90v0z" />
    <glyph glyph-name="uni06F7" unicode="&#x6f7;" horiz-adv-x="1291" 
d="M519 -83q0 237 -40.5 440t-106.5 379.5t-151.5 331.5t-175.5 298l257 165q72 -119 130 -239.5t105 -240.5t84 -237.5t67 -229.5q24 87 51 180t56 184.5t59 179t60 164t59.5 139.5t57.5 106l256 -163q-38 -60 -76.5 -135t-76 -160.5t-74 -179.5t-70.5 -191
q-78 -226 -120.5 -422.5t-44.5 -368.5h-306v0z" />
    <glyph glyph-name="uni06F8" unicode="&#x6f8;" horiz-adv-x="1351" 
d="M1071 -94q-27 42 -57.5 102t-62 132.5t-63.5 154.5t-63 168.5t-59 174t-52 171.5q-33 -106 -73 -218t-89 -227t-108 -232t-129 -232l-257 164q90 143 175 299.5t151.5 334.5t106.5 382t40 442l325 -1q3 -109 25.5 -239t58.5 -266.5t83 -274t98 -262.5t104 -231t101 -180
l-255 -162v0z" />
    <glyph glyph-name="uni06F9" unicode="&#x6f9;" horiz-adv-x="1098" 
d="M877 799q3 -103 19 -211t41.5 -207t58.5 -181t70 -131l-233 -181q-41 44 -72 103.5t-53 128t-37 142.5t-24.5 147.5t-14.5 143t-8 128.5q-35 -4 -78.5 -5.5t-77.5 -1.5q-85 0 -160.5 18t-133 62.5t-93.5 118.5t-42 186q0 57 14 116.5t40 115t62.5 104t81 84t96 55.5
t108.5 18q39 -2 84.5 -14.5t91 -43t89.5 -84.5t80 -138q21 -51 37.5 -114t27.5 -127t17.5 -125t8.5 -107zM450 985q15 0 34.5 0.5t40.5 1.5t40.5 2.5t33.5 3.5q-5 35 -18.5 78t-35 82t-52 67.5t-68.5 33.5q-23 3 -47.5 -16t-44.5 -48.5t-33.5 -63.5t-13.5 -62
q0 -24 15 -39.5t39 -24.5t53 -12t57 -3z" />
    <glyph glyph-name="uni2000" unicode="&#x2000;" horiz-adv-x="1172" 
 />
    <glyph glyph-name="uni2001" unicode="&#x2001;" horiz-adv-x="2346" 
 />
    <glyph glyph-name="uni2002" unicode="&#x2002;" horiz-adv-x="1172" 
 />
    <glyph glyph-name="uni2003" unicode="&#x2003;" horiz-adv-x="2346" 
 />
    <glyph glyph-name="uni2004" unicode="&#x2004;" horiz-adv-x="783" 
 />
    <glyph glyph-name="uni2005" unicode="&#x2005;" horiz-adv-x="586" 
 />
    <glyph glyph-name="uni2006" unicode="&#x2006;" horiz-adv-x="391" 
 />
    <glyph glyph-name="uni2007" unicode="&#x2007;" horiz-adv-x="1293" 
 />
    <glyph glyph-name="uni2008" unicode="&#x2008;" horiz-adv-x="629" 
 />
    <glyph glyph-name="uni2009" unicode="&#x2009;" horiz-adv-x="469" 
 />
    <glyph glyph-name="uni200A" unicode="&#x200a;" horiz-adv-x="235" 
 />
    <glyph glyph-name="ZWSP" unicode="&#x200b;" 
 />
    <glyph glyph-name="uni200C" unicode="&#x200c;" 
d="M36 1667v-1484h-72v1484h72z" />
    <glyph glyph-name="uni200D" unicode="&#x200d;" 
d="M36 183h-72v1185l-134 -136l-49 49l171 169l-171 168l49 49l170 -171l170 171l49 -49l-171 -168l171 -169l-49 -49l-134 136v-1185z" />
    <glyph glyph-name="uni200E" unicode="&#x200e;" 
d="M430 1452l-217 -214l-49 49l137 130h-266v-1234h-71v1305h337l-137 130l49 49z" />
    <glyph glyph-name="uni200F" unicode="&#x200f;" 
d="M35 183h-71v1234h-266l137 -130l-49 -49l-217 214l217 215l49 -49l-137 -130h337v-1305z" />
    <glyph glyph-name="uni2010" unicode="&#x2010;" horiz-adv-x="893" 
d="M756 569h-632v262h632v-262z" />
    <glyph glyph-name="uni2011" unicode="&#x2011;" horiz-adv-x="893" 
d="M756 569h-632v262h632v-262z" />
    <glyph glyph-name="endash" unicode="&#x2013;" horiz-adv-x="1453" 
d="M1334 669h-1163v265h1163v-265z" />
    <glyph glyph-name="emdash" unicode="&#x2014;" horiz-adv-x="1755" 
d="M1672 669h-1550v265h1550v-265z" />
    <glyph glyph-name="horizontalbar" unicode="&#x2015;" horiz-adv-x="1755" 
d="M1672 669h-1550v265h1550v-265z" />
    <glyph glyph-name="underscoredbl" unicode="&#x2017;" horiz-adv-x="1025" 
d="M1024 -548h-1023v254h1023v-254zM1024 -254h-1023v254h1023v-254z" />
    <glyph glyph-name="quoteleft" unicode="&#x2018;" horiz-adv-x="538" 
d="M321 1763l153 -89q-97 -152 -100 -309v-188h-257v168q0 106 59 225.5t145 192.5z" />
    <glyph glyph-name="quoteright" unicode="&#x2019;" horiz-adv-x="528" 
d="M218 1133l-153 89q97 151 100 313v190h258v-174q0 -101 -56 -219t-149 -199z" />
    </font>
</defs>
</svg>
